Grateful Dead 04/06/78
Curtis Hixon Convention Hall, Tampa, FL
Source Summary
flac16; Recorded by Bob Wagner; Sony 54Ps> Sony TC-158. AUDMC > SHN conversion by David Minches; patches and speed correction by Kevin Tobin
Band Grateful Dead
Venue Curtis Hixon Convention Center
Location Tampa, FL  
Date 4/6/78 - Thursday

Recording Info:
Recorded by Bob Wagner; Sony 54Ps> Sony TC-158. AUDMC > SHN conversion by David Minches; patches and speed correction by Kevin Tobin

Patched with
SBD -> Master Reel -> PCM -> Dat (shnid 81307)

Disk 1
Set One
Bertha >
Good Lovin'  
Dire Wolf  
Me And My Uncle >
Big River  
Friend Of The Devil
Passenger
Candyman  
Lazy Lightnin' >
Supplication

Disk 2
Set Two
Crowd/tuning
Samson And Delilah
It Must Have Been The Roses
Crowd/tuning
Estimated Prophet >
He's Gone >

Disk 3
Set Two continued
Drums >
The Other One  >
Wharf Rat >
Around And Around
Encore U.S. Blues


------------- original notes ---------------------------------------
Source: Recorded by Bob Wagner; Sony 54Ps> Sony TC-158    
Lineage: AUDMC played back on Nak Dragon> ART DI/O> Egosys Waveterminal 2496>
Cool Edit 2000> Feurio/mkwACT by David Minches
Info file by Matt Vernon (shnid 18150)

- some PA crackling in set 2 but its minor
d1t03 - bass presence increased briefly in Dire Wolf (PA mix change?)
d1t06 - tape flip perhaps after FOTD
d3t04 - 4:20 presumed tape flip :)
-------------------------------------------------------------------

Charlie Miller recently released a need sbd of this show and I thought it would make a great dts/matrix show so I pulled out this wonderful recording done by Rob Wagner to compliment it. Beside the audio patching listed below, I corrected for a speed varience of about 1 second fast for every 2 minutes played.

Audio Patching:
1) Between Big River and Friend of the Devil, 8.850 seconds was missing from the aud source and filled in with audio from the soundboard. This portion of the audio was normalized to blend in better.

2) Between Friend of the Devil and Passenger, 1 minute 8.763 seconds was missing from the aud source and filled in with audio from the soundboard. This portion of the audio was normalized to blend in better.

3) Between Samson and Delilah and It Must Have Been the Roses, 33.394 seconds was missing from the aud source and filled in with audio from the soundboard. This portion of the audio was normalized to blend in better.

4) 4 minute 20 seconds into Drums, 14.033 seconds was missing from the aud source and filled in with audio from the soundboard. This portion of the audio was normalized to blend in better.

SHNTOOL Information:
    length     expanded size   cdr  WAVE problems filename
     7:04.47       74904188    ---   --   -----   gd78-04-06d1t01.wav
     8:31.28       90206300    ---   --   -----   gd78-04-06d1t02.wav
     6:53.57       72987308    ---   --   -----   gd78-04-06d1t03.wav
     3:06.36       32895116    ---   --   -----   gd78-04-06d1t04.wav
     7:17.11       77112716    ---   --   -----   gd78-04-06d1t05.wav
     9:59.21      105713036    ---   --   -----   gd78-04-06d1t06.wav
     5:53.47       62379788    ---   --   -----   gd78-04-06d1t07.wav
    10:02.02      106197548    ---   --   -----   gd78-04-06d1t08.wav
     3:28.23       36745340    ---   --   -----   gd78-04-06d1t09.wav
     4:33.53       48281900    ---   --   -----   gd78-04-06d1t10.wav
     1:39.63       17611820    ---   --   -----   gd78-04-06d2t01.wav
    11:00.08      116442860    ---   --   -----   gd78-04-06d2t02.wav
    10:37.67      112524428    ---   --   -----   gd78-04-06d2t03.wav
    12:26.08      131613260    ---   --   -----   gd78-04-06d2t04.wav
    12:35.22      133233788    ---   --   -----   gd78-04-06d2t05.wav
     7:24.66       78476876    ---   --   -----   gd78-04-06d3t01.wav
    16:20.50      172989644    ---   --   -----   gd78-04-06d3t02.wav
    11:33.49      122360492    ---   --   -----   gd78-04-06d3t03.wav
     9:35.22      101481788    ---   --   -----   gd78-04-06d3t04.wav
     5:55.49       62737292    ---   --   -----   gd78-04-06d3t05.wav
   165:59.54     1756895488 B                     (totals for 20 files, 1.0000 overall compression ratio)

38b7273a390a591869295dad82d650a4 *gd78-04-06d1t01.flac
cece32bfa095a8cab1cec99eff9b5bd1 *gd78-04-06d1t02.flac
70c2d4a8f41d10258d443280f34975d0 *gd78-04-06d1t03.flac
f729b1cc0f8bd15ffd1795695fb035ab *gd78-04-06d1t04.flac
2ccde4fb4642497c0b39d7a3d4c5c73b *gd78-04-06d1t05.flac
0d2e789ecf9b3386105d6b7bf6f78589 *gd78-04-06d1t06.flac
10adae91a2f63274e4493e51a1040e59 *gd78-04-06d1t07.flac
067f0ebb9a2334524268a6d41f0a883d *gd78-04-06d1t08.flac
c2a6e8bcfa3aa07db908f5e389a944b7 *gd78-04-06d1t09.flac
fa9f2bff141f3d5b5638422231a2b6d6 *gd78-04-06d1t10.flac
ac37422e27b3d21273cb4910461d5b26 *gd78-04-06d2t01.flac
ca65aff83922432423399ed3182c6399 *gd78-04-06d2t02.flac
5b29651595bb06aaad82f6b4a02a5eeb *gd78-04-06d2t03.flac
6153ad845fec828fcbbbbc621a5b91e4 *gd78-04-06d2t04.flac
953d5401bd42a0de556af1bd792f71df *gd78-04-06d2t05.flac
e4308b809235ca52050a3cb8e0ebdc7e *gd78-04-06d3t01.flac
67d25861f4364e3583db7001d97ead18 *gd78-04-06d3t02.flac
54ffeac98ed641e9439f6b18a7183ebd *gd78-04-06d3t03.flac
23075f1dc5d66b86ef5b5dcfa7feeb9b *gd78-04-06d3t04.flac
e1035c1c8c35fc789f6d4735fa06f1c4 *gd78-04-06d3t05.flac
ffp
gd78-04-06d3t05.flac:0aad10d0f491f2e91925482907828112
gd78-04-06d1t01.flac:e4a04edca3a6597cbc9c9b0b6c591bc2
gd78-04-06d1t02.flac:22f500342fc85289cbab32d21c9623a1
gd78-04-06d1t03.flac:b2e6015081940eae8fc32d70b75b7b8d
gd78-04-06d1t04.flac:825d72d517e6f542d690c376327be1a9
gd78-04-06d1t05.flac:6d0bbb3d9c32694b41a8d1c90ab97251
gd78-04-06d1t06.flac:f4dbdf8bdb4cce760b9c79624eaed87d
gd78-04-06d1t07.flac:385176bec8acebb1338f54976c423238
gd78-04-06d1t08.flac:bf90d73dc299a0a524d1c4a4cb86f6c6
gd78-04-06d1t09.flac:d1ef2c0d83ffe15228bc76119a4fbc4c
gd78-04-06d1t10.flac:be4fb6e9109a7f79d34c2db761c80187
gd78-04-06d2t01.flac:12f72e82ce900a295d4a722f71d6feb4
gd78-04-06d2t02.flac:27effc0339df97f92fe45d7fde388828
gd78-04-06d2t03.flac:9dc8b1c4e6ea21a59993dcb9d22e0c44
gd78-04-06d2t04.flac:107ac678374f69e2866c933effdd0798
gd78-04-06d2t05.flac:573a214f781c9a5e59fc559051be2444
gd78-04-06d3t01.flac:093f1a7769e778fec587f0d04ba63b97
gd78-04-06d3t02.flac:eef39a3a422a11610d705ef2d791d068
gd78-04-06d3t03.flac:a8e3328ea19e542fdba0f771273752ea
gd78-04-06d3t04.flac:a6645a0afa5baaf09e021f06bc697f0e

Comments
etreedb.org
For administrative requests email contact@etreedb.org
This website written by Tom H Anderson and maintained by the etreedb.org community.

Cached: Tue, 17 Sep 2019 13:26:27 EDT