Grateful Dead 04/06/78
Curtis Hixon Convention Hall, Tampa, FL
Source Summary
flac16; SBD + AUD Matrix 2 Source Mix (65%-SBD/35%-AUD) Mix consisting of SBD - shn id 81307, AUD - shn id 81494
Band Grateful Dead
Venue Curtis Hixon Convention Center
Location Tampa, FL  
Date 4/6/78 - Thursday

SBD + AUD Matrix 2 Source Mix (65%-SBD/35%-AUD)

Disk 1
Set One
Bertha >
Good Lovin'  
Dire Wolf  
Me And My Uncle >
Big River  
Friend Of The Devil
Passenger
Candyman  
Lazy Lightnin' >
Supplication

Disk 2
Set Two
Crowd/tuning
Samson And Delilah
It Must Have Been The Roses
Crowd/tuning
Estimated Prophet >
He's Gone >

Disk 3
Set Two continued
Drums >
The Other One  >
Wharf Rat >
Around And Around
Encore U.S. Blues

Source Information

SBD (shnid 81307)
SBD -> Master Reel -> PCM -> Dat
Dat -> Samplitude Professional v8.01 -> FLAC
All Transfers and Mastering By Charlie Miller
charliemiller87@earthlink.net
Notes:
-- Set 2 is seamless
-- Some PA static in the last few songs

AUD (original shnid 18150)
Source: Recorded by Bob Wagner; Sony 54Ps> Sony TC-158    
Lineage: AUDMC played back on Nak Dragon> ART DI/O> Egosys Waveterminal 2496>
Cool Edit 2000> Feurio/mkwACT by David Minches
- some PA crackling in set 2 but its minor
d1t03 - bass presence increased briefly in Dire Wolf (PA mix change?)
d1t06 - tape flip perhaps after FOTD
d3t04 - 4:20 presumed tape flip :)

SHNs were decoded to wave and Audition 2.0 was used to reassemble
the tracks back to 1 long wave.  Audition 2.0 was used to align &
synch the SBD & AUD sources.  
- Aud and sbd were synced while working on a dts encoded cd, matrix and audio dvd
- Mixed by kevtobin@yahoo.com
- FLAC conversion 09-JAN-2007

Audio Patching:
1) To start the show, 7 minutes 01.232 seconds was missing from the sbd and was filled in with audio from the audience. This portion of the audio was normalized to blend in better.

2) Between Good Lovin' and Dire Wolf, 2 minutes 10.500 seconds was missing from the sbd source and filled in with audio from the audience. This portion of the audio was normalized to blend in better.

3) Between Dire Wolf and Me and My Uncle, 1 minutes 33.800 seconds was missing from the sbd source and filled in with audio from the audience. This portion of the audio was normalized to blend in better.

4) Between Big River and Friend of the Devil, 8.850 seconds was missing from the aud source and filled in with audio from the soundboard. This portion of the audio was normalized to blend in better.

5) Between Friend of the Devil and Passenger, 1 minute 8.763 seconds was missing from the aud source and filled in with audio from the soundboard. This portion of the audio was normalized to blend in better.

6) Between Samson and Delilah and It Must Have Been the Roses, 33.394 seconds was missing from the aud source and filled in with audio from the soundboard. This portion of the audio was normalized to blend in better.

7) Between It Must Have Been the Roses and Estimated Prophet, 2 minutes 3.000 seconds was missing from the sbd source and filled in with audio from the audience. This portion of the audio was normalized to blend in better.

8) 4 minute 20 seconds into Drums, 14.033 seconds was missing from the aud source and filled in with audio from the soundboard. This portion of the audio was normalized to blend in better.

9) 3 minutes 17 seconds into the Other One, 3.400 seconds was missing from the sbd source and filled in with audio from the audience. This portion of the audio was normalized to blend in better.

10) 14 minutes 11 seconds into the Other One, 34.800 seconds was missing from the sbd source and filled in with audio from the audience. This portion of the audio was normalized to blend in better.

11) 20 seconds before the start of US Blues, 30.600 seconds was missing from the sbd source and filled in with audio from the audience. This portion of the audio was normalized to blend in better.

---------------------------------------------------------

Multitrack Mixdown Settings

SET ONE

Stereo Matrix
SBD -3
AUD -6

SET TWO

Stereo Matrix
SBD -3
AUD -6

---------------------------------------------------------

Additional Notes:

This is my first matrix ... I thought it came out sounding good but I prefer the dts versions as the sound is distinct. Thanks to amdig for his helps and pushing for me to move into the matrix world of stereo vice the 5.1 format.

Bertha is missing on the sbd source ... both the dts and matrix version of this song are a little bright but still very energetic. The static during Around and Around through US Blues is still present but the matrix cancelled it out a little.

The Robert Wagner audience was patched and corrected for speed - the updated version was released as shnid 81494.

As most of the patches to the sbd were during the dead space between songs, I will not be circulating the more complete sbd at this time.


SHNTOOL Information:
length     expanded size   cdr  WAVE problems filename
     7:04.47       74904188    ---   --   -----   gd76-04-06d1t01.wav
     8:31.28       90206300    ---   --   -----   gd76-04-06d1t02.wav
     6:53.57       72987308    ---   --   -----   gd76-04-06d1t03.wav
     3:06.36       32895116    ---   --   -----   gd76-04-06d1t04.wav
     7:17.11       77112716    ---   --   -----   gd76-04-06d1t05.wav
     9:59.21      105713036    ---   --   -----   gd76-04-06d1t06.wav
     5:53.47       62379788    ---   --   -----   gd76-04-06d1t07.wav
    10:02.02      106197548    ---   --   -----   gd76-04-06d1t08.wav
     3:28.23       36745340    ---   --   -----   gd76-04-06d1t09.wav
     4:33.53       48281900    ---   --   -----   gd76-04-06d1t10.wav
     1:39.63       17611820    ---   --   -----   gd76-04-06d2t01.wav
    11:00.08      116442860    ---   --   -----   gd76-04-06d2t02.wav
    10:37.67      112524428    ---   --   -----   gd76-04-06d2t03.wav
    12:26.08      131613260    ---   --   -----   gd76-04-06d2t04.wav
    12:35.22      133233788    ---   --   -----   gd76-04-06d2t05.wav
     7:24.66       78476876    ---   --   -----   gd76-04-06d3t01.wav
    16:20.50      172989644    ---   --   -----   gd76-04-06d3t02.wav
    11:33.49      122360492    ---   --   -----   gd76-04-06d3t03.wav
     9:35.22      101481788    ---   --   -----   gd76-04-06d3t04.wav
     5:55.49       62737292    ---   --   -----   gd76-04-06d3t05.wav
   165:59.54     1756895488 B                     (totals for 20 files, 1.0000 overall compression ratio)
34f9b17afea282cf0e285d9fed8e6680 *gd78-04-06d1t01.flac
6a950256d60eacbf41ac01795ffa8e0e *gd78-04-06d1t02.flac
154f1ae560d14870675e267cbdc68a75 *gd78-04-06d1t03.flac
b6eb08bf36f13b04c6c0c56ad10ce113 *gd78-04-06d1t04.flac
de7d02c84096edf19c044358538e1d4a *gd78-04-06d1t05.flac
58437f0af75d1711e37bd20ef14c0cef *gd78-04-06d1t06.flac
45ede2887955320f5324339265c25635 *gd78-04-06d1t07.flac
cc6b159bb5e83ee85a14f8087c95476c *gd78-04-06d1t08.flac
c332cb48514efa94cbcca3029de0dd4e *gd78-04-06d1t09.flac
537139077d25a3fbdedc85843c733d8e *gd78-04-06d1t10.flac
e9bce5c1ba423e30937811876e4ec50b *gd78-04-06d2t01.flac
fafd2638630f70d9819fc692cac2ff87 *gd78-04-06d2t02.flac
1ad7f26a72efd72936e01205781f2e65 *gd78-04-06d2t03.flac
cf7ca458a5ae6c3153c91460381ae3a8 *gd78-04-06d2t04.flac
59bf4f26a0843ed142691d87be41e6ef *gd78-04-06d2t05.flac
8b27c2005498f28421fb836a41ec09a7 *gd78-04-06d3t01.flac
a2c64d7fa4931da0d06d7b5d8f3689a3 *gd78-04-06d3t02.flac
ea5dc85810eed0c9a4dd0401ef98f557 *gd78-04-06d3t03.flac
45602d0fed0ace351ac4f2d65cb6d57a *gd78-04-06d3t04.flac
67763c9b20cdcf7637d3b01e65dc025a *gd78-04-06d3t05.flac
ffp
gd78-04-06d1t01.flac:892ab71654273dad07ddb058c7e84615
gd78-04-06d1t02.flac:78f1a568877b7c3e8a22b0f294c0a32c
gd78-04-06d1t03.flac:f593f7dc49c8ba2e9430cb04a4e7a203
gd78-04-06d1t04.flac:11f0879d87a1212d617dfce81ff473cd
gd78-04-06d1t05.flac:93e2d7d288e9d8c241d8fefe15b1f41b
gd78-04-06d1t06.flac:9c2e45b7c962a6fb844ce590d875493a
gd78-04-06d1t07.flac:88ac27166b53c2a240729ddf4ff38de7
gd78-04-06d1t08.flac:b5021a145baa56920ebcc2a2546a4f4e
gd78-04-06d1t09.flac:08d4cde656f881cb4ea43f3ee8504aa9
gd78-04-06d1t10.flac:fdd233aaec65655f20dd5dccdd4ce605
gd78-04-06d2t01.flac:0badf9e87cf30fd01fbb568fcf7e6101
gd78-04-06d2t02.flac:20208e093b25077f214f47ec8c57f11f
gd78-04-06d2t03.flac:b3f4fcfe046857cfb677707ecf5fbe12
gd78-04-06d2t04.flac:3e0b01e136618da419d834f0c94f6e34
gd78-04-06d2t05.flac:70dfe0891341dbd89e4c1f5d325d0646
gd78-04-06d3t01.flac:b11dbb3b9faec4a0d1b11267fd33d9d7
gd78-04-06d3t02.flac:ffd11b2bed21767dd98c1b8b40bbe006
gd78-04-06d3t03.flac:3186d64e927e12bee021fbaa353020c0
gd78-04-06d3t04.flac:48b118b207decc2bddaed6e6a11a3d2a
gd78-04-06d3t05.flac:059b778a772225a492273e357c5db599

Comments
Other Sources (comments)
mSR -> PCM -> DAT 48k ->... (0) Recorded by Bob Wagner;... (0) flac16 ; Recording Info:... (0) flac16 ; Recorded by Bob... (0) DTS Audio 5.1 ; Mix of... (0) DVD-VA : (Video Audio) 2... (0) flac16 ; Source: sbd >... (0)
Date User Comment
03/02/2009 germain The second crowd/tuning track is not a separate track but instead makes up the final several minutes of It Must Have Been the Roses.
etreedb.org
For administrative requests email contact@etreedb.org
This website written by Tom H Anderson and maintained by the etreedb.org community.

Cached: Tue, 17 Sep 2019 09:21:09 EDT