Grateful Dead 12/16/78
Nashville Municipal Auditorium, Nashville, TN
Source Summary
flac16; Recording Info: (FOB) Sony ECM250 -> Cassette Master (Maxell UD-XLII/Dolby B) Transfer Info: Cassette Master (Tascam 122mkII/Dolby B) -> Apogee MiniMe (24bit/48k) -> Samplitude Professional v8.01 -> FLAC/16 All Transfers and Mastering By Charlie Miller (note: Dolby was used in the transfer of this source)
Grateful Dead - December 16, 1978
Municipal Auditorium - Nashville, TN

Recording Info:
(FOB) Sony ECM250 -> Cassette Master (Maxell UD-XLII/Dolby B)

Transfer Info:
Cassette Master (Tascam 122mkII/Dolby B) -> Apogee MiniMe (24bit/48k) ->
Samplitude Professional v8.01 -> FLAC/16
(3 Discs Audio / 2 Discs FLAC)

All Transfers and Mastering By Charlie Miller
charliemiller87@earthlink.net
January 24, 2007

Patch Info:
Nakamichi 300 -> Cassette Master -> Dat -> CD (By Robert Wagner)
Drums (9:08 - 9:26)

Notes:
-- 2nd Set is seamless
-- Thanks to Paul Scotton and Joani Walker for the tapes
-- There were fades and gaps between almost every song which I fixed
-- First few seconds of Sugaree are missing

Set 1:
d1t01 - Sugaree
d1t02 - Beat It On Down The Line
d1t03 - Candyman
d1t04 - Me And My Uncle ->
d1t05 - Big River
d1t06 - Stagger Lee
d1t07 - Looks Like Rain
d1t08 - Tennessee Jed
d1t09 - Lazy Lightnin' ->
d1t10 - Supplication

Set 2:
d2t01 - Tuning
d2t02 - Scarlet Begonias ->
d2t03 - Fire On The Mountain
d2t04 - Samson And Delilah
d2t05 - From The Heart Of Me
d3t01 - He's Gone ->
d3t02 - Drums ->
d3t03 - Space ->
d3t04 - The Other One ->
d3t05 - Wharf Rat ->
d3t06 - Around And Around

Encore:
d3t07 - One More Saturday Night


SHNTOOL OUTPUT:
    length     expanded size   cdr  WAVE problems filename
    14:25.07      152602508    ---   --   -----   gd78-12-16d1t01.wav
     3:57.29       41875052    ---   --   -----   gd78-12-16d1t02.wav
     7:59.44       84599132    ---   --   -----   gd78-12-16d1t03.wav
     3:00.71       31919036    ---   --   -----   gd78-12-16d1t04.wav
     7:11.14       76061372    ---   --   -----   gd78-12-16d1t05.wav
     6:44.53       71390300    ---   --   -----   gd78-12-16d1t06.wav
     8:54.69       94359932    ---   --   -----   gd78-12-16d1t07.wav
    11:04.32      117204908    ---   --   -----   gd78-12-16d1t08.wav
     3:22.35       35715164    ---   --   -----   gd78-12-16d1t09.wav
     6:02.19       63901532    ---   --   -----   gd78-12-16d1t10.wav
     2:07.63       22551020    ---   --   -----   gd78-12-16d2t01.wav
     9:58.06      105501356    ---   --   -----   gd78-12-16d2t02.wav
    11:43.19      124053932    ---   --   -----   gd78-12-16d2t03.wav
     8:35.27       90909548    ---   --   -----   gd78-12-16d2t04.wav
     4:49.72       51148988    ---   --   -----   gd78-12-16d2t05.wav
    17:04.05      180645404    ---   --   -----   gd78-12-16d3t01.wav
    10:50.04      114669452    ---   --   -----   gd78-12-16d3t02.wav
     3:50.29       40640252    ---   --   -----   gd78-12-16d3t03.wav
    14:55.16      157915676    ---   --   -----   gd78-12-16d3t04.wav
    11:27.69      121349132    ---   --   -----   gd78-12-16d3t05.wav
    11:07.68      117818780    ---   --   -----   gd78-12-16d3t06.wav
     5:05.47       53912588    ---   --   -----   gd78-12-16d3t07.wav
   184:18.48     1950745064 B                     (totals for 22 files)
ffp
gd78-12-16d1t01.flac:fe15c20a4feb43d7a7748fa6a587866e
gd78-12-16d1t02.flac:1f7862fa21c8fe72f3e5537ea580a4cb
gd78-12-16d1t03.flac:15a85eae3ce0e3de3a01ec81b531ed38
gd78-12-16d1t04.flac:99b6db676e30a556c20a6eb5af75ce8e
gd78-12-16d1t05.flac:aa0ef907a1708a3edbc9f722cbfca7c1
gd78-12-16d1t06.flac:d29657768c14af10d513ea781f13d353
gd78-12-16d1t07.flac:395db38a8c49204a8cb30e9ae9df0b88
gd78-12-16d1t08.flac:030c92e47323bb15a887867cb495e0e5
gd78-12-16d1t09.flac:7f040c8568a38fd6382bf061b64eaeb5
gd78-12-16d1t10.flac:bc6f6f9f0a1375be18a7e667012949ab
gd78-12-16d2t01.flac:6f98de1a89559189c87f512edb1f5e39
gd78-12-16d2t02.flac:4a057e1b7efa38928e4a736c31a3b315
gd78-12-16d2t03.flac:d9b4f1b82f3ce0fc6873156b90dc90ca
gd78-12-16d2t04.flac:4d45fe27967804708b87af610621d085
gd78-12-16d2t05.flac:e8744285fe10f3f6fe09c1ee680db7dd
gd78-12-16d3t01.flac:be6ebbad3987c46038f889254242d7f8
gd78-12-16d3t02.flac:3a493be7bcb5dd9d2452c2943b2b420a
gd78-12-16d3t03.flac:4b3508d9750cad47c3f45db78c77ef2c
gd78-12-16d3t04.flac:48a7d7cc6bc1e3074418106218c605e0
gd78-12-16d3t05.flac:cc69c9ec3e37ee1b0cd4d2d85b9e774c
gd78-12-16d3t06.flac:9ad25adf826b5bbb6de2f07937c68833
gd78-12-16d3t07.flac:dff773c80c5ba929b43529beea598b5a
05f2e7d8e86be60f22228d690e84705d *gd78-12-16d1t01.flac
68015c121bb2f054f82e2416d90fe0bc *gd78-12-16d1t02.flac
fa8d6d564da219649d68b4c0098971c7 *gd78-12-16d1t03.flac
1b1775a474b5b1b4f65c8dac6aba7f91 *gd78-12-16d1t04.flac
11f505fd3091df926a259a42d68e51a3 *gd78-12-16d1t05.flac
384278cbdbf56dbd3b651575075519eb *gd78-12-16d1t06.flac
3ac3f5d9a9483bf9ec0ca7d0ae7bee25 *gd78-12-16d1t07.flac
de03a8841797a06890a5611149e33a52 *gd78-12-16d1t08.flac
854b2fd3031e2a0c1553d78838d32688 *gd78-12-16d1t09.flac
83c444810971071331634fadb616b188 *gd78-12-16d1t10.flac
2771a1ff1b0abc2696ede960f68d75e9 *gd78-12-16d2t01.flac
988bf28b09a1f008bfe8d590ab933c70 *gd78-12-16d2t02.flac
d8ad43f54118ed6c9a7d3624598ab57a *gd78-12-16d2t03.flac
c14655a5eeb1d41de837fa42cacb79ab *gd78-12-16d2t04.flac
26f8e129cee1ec7e25457c1eab836edf *gd78-12-16d2t05.flac
5e856733f16465fc3e714bf4d4ac0162 *gd78-12-16d3t01.flac
74719fbced6e02c1842e419157ff76f4 *gd78-12-16d3t02.flac
0b02f1b3bf45f5c01eded4ed936f4743 *gd78-12-16d3t03.flac
08ed11370d8a7863b4886b8439872e8a *gd78-12-16d3t04.flac
2efdbfd76c72966fbf627a587359f952 *gd78-12-16d3t05.flac
d335ab5fee25ce406040ff6348df8be4 *gd78-12-16d3t06.flac
f51b1e63eebb5049595ab31ec85cebfe *gd78-12-16d3t07.flac

Comments
Other Sources (comments)
Source: AUD, unknown mics:... (0) Robert Wagner Nak... (0) flac16 ; Recording Info:... (1)
Date User Comment
etreedb.org
For administrative requests email contact@etreedb.org
This website written by Tom H Anderson and maintained by the etreedb.org community.

Cached: Tue, 17 Sep 2019 09:20:30 EDT