Grateful Dead 12/16/78
Nashville Municipal Auditorium, Nashville, TN
Source Summary
flac16; Recording Info: (FOB) Sony ECM 250 -> Cassette Master (Maxell UD-XLII/Dolby B) Transfer Info: Cassette Master (Tascam 122mkII) -> Apogee MiniMe (24bit/48k) -> Samplitude Professional v8.01 -> FLAC/16 All Transfers and Mastering By Charlie Miller (note: no Dolby was used in the transfer of this source)
Grateful Dead - December 16, 1978
Municipal Auditorium - Nashville, TN

Recording Info:
(FOB) Sony ECM 250 -> Cassette Master (Maxell UD-XLII/Dolby B)

Transfer Info:
Cassette Master (Tascam 122mkII) -> Apogee MiniMe (24bit/48k) ->
Samplitude Professional v8.01 -> FLAC/16
(3 Discs Audio / 2 Discs FLAC)

All Transfers and Mastering By Charlie Miller
charliemiller87@earthlink.net
January 26, 2007

Patch Info:
Nakamichi 300 -> Cassette Master -> Dat -> CD (By Robert Wagner)
Drums (9:08 - 9:26)

Notes:
-- 2nd Set is seamless
-- Thanks to Paul Scotton and Joani Walker for the tapes
-- There were fades and gaps between almost every song which I fixed
-- First few seconds of Sugaree are missing
-- This version is played back without Dolby

Set 1:
d1t01 - Sugaree
d1t02 - Beat It On Down The Line
d1t03 - Candyman
d1t04 - Me And My Uncle ->
d1t05 - Big River
d1t06 - Stagger Lee
d1t07 - Looks Like Rain
d1t08 - Tennessee Jed
d1t09 - Lazy Lightnin' ->
d1t10 - Supplication

Set 2:
d2t01 - Tuning
d2t02 - Scarlet Begonias ->
d2t03 - Fire On The Mountain
d2t04 - Samson And Delilah
d2t05 - From The Heart Of Me
d3t01 - He's Gone ->
d3t02 - Drums ->
d3t03 - Space ->
d3t04 - The Other One ->
d3t05 - Wharf Rat ->
d3t06 - Around And Around

Encore:
d3t07 - One More Saturday Night


SHNTOOL OUTPUT:
    length     expanded size   cdr  WAVE problems filename
    14:24.51      152529596    ---   --   -----   gd78-12-16d1t01.wav
     3:57.14       41839772    ---   --   -----   gd78-12-16d1t02.wav
     7:59.04       84505052    ---   --   -----   gd78-12-16d1t03.wav
     3:01.04       31937852    ---   --   -----   gd78-12-16d1t04.wav
     7:12.01       76207196    ---   --   -----   gd78-12-16d1t05.wav
     6:43.38       71178620    ---   --   -----   gd78-12-16d1t06.wav
     8:53.34       94101212    ---   --   -----   gd78-12-16d1t07.wav
    11:03.06      116967356    ---   --   -----   gd78-12-16d1t08.wav
     3:22.37       35719868    ---   --   -----   gd78-12-16d1t09.wav
     6:01.39       63772172    ---   --   -----   gd78-12-16d1t10.wav
     2:12.45       23390684    ---   --   -----   gd78-12-16d2t01.wav
     9:58.16      105524876    ---   --   -----   gd78-12-16d2t02.wav
    11:42.17      123872828    ---   --   -----   gd78-12-16d2t03.wav
     8:35.35       90928364    ---   --   -----   gd78-12-16d2t04.wav
     4:50.24       51212492    ---   --   -----   gd78-12-16d2t05.wav
    17:04.17      180673628    ---   --   -----   gd78-12-16d3t01.wav
    10:55.68      115701980    ---   --   -----   gd78-12-16d3t02.wav
     3:46.04       39875852    ---   --   -----   gd78-12-16d3t03.wav
    14:55.67      158035628    ---   --   -----   gd78-12-16d3t04.wav
    11:28.74      121537292    ---   --   -----   gd78-12-16d3t05.wav
    11:06.55      117611804    ---   --   -----   gd78-12-16d3t06.wav
     5:05.15       53837324    ---   --   -----   gd78-12-16d3t07.wav
   184:19.65     1950961448 B                     (totals for 22 files)
ffp
gd78-12-16d1t01.flac:bbb70f4ef5b138682e9900cbe01f532b
gd78-12-16d1t02.flac:5323d2164008decac99ff69bf835bde6
gd78-12-16d1t03.flac:f0654c578423f18bb85654af4c7c205e
gd78-12-16d1t04.flac:3a35a44af9746f85cc4ced7cb74a1618
gd78-12-16d1t05.flac:36dbfee1d160aded5bd0b8ecc03d9e6d
gd78-12-16d1t06.flac:76c8f1b85cc938c09337deedecfe0968
gd78-12-16d1t07.flac:75a30da489037e97c64e9afb6f3f39f9
gd78-12-16d1t08.flac:ef91495f6f0951cd5f6e4de319dbfcc8
gd78-12-16d1t09.flac:a1e36fa100e696a813c7cdc1647f37d4
gd78-12-16d1t10.flac:a51e5568b0b3481630bb82c41c511527
gd78-12-16d2t01.flac:fad62ff7d2be99299d71e49d25247b0c
gd78-12-16d2t02.flac:2bfa57b2bdf4d35e7fbef9c05f71d6c5
gd78-12-16d2t03.flac:cf810f93a699cba82a2345ebd828274c
gd78-12-16d2t04.flac:12cba7505b4172954be26cd673183b96
gd78-12-16d2t05.flac:47bc46b91223dd07cee0e54f2b9ac113
gd78-12-16d3t01.flac:44b54e7e00b3a140af7f53159746d890
gd78-12-16d3t02.flac:1522a88536a52767d8aa0b298ec0996e
gd78-12-16d3t03.flac:be5fedb61469de0313a4daaee46525d2
gd78-12-16d3t04.flac:ee0ea9d114b015b0b9e85a72c18e8610
gd78-12-16d3t05.flac:6b5abfbb24c90d11a9a2d66a7a96b60d
gd78-12-16d3t06.flac:982a256001129146b27ce0c42af41efc
gd78-12-16d3t07.flac:9a3a22ae4a1334ac5201df1cc2b39b46
5e53b895832b92c0e4e01c057769b420 *gd78-12-16d1t01.flac
f559eeb3303d61a7d9efaf6e7c2a60a6 *gd78-12-16d1t02.flac
9737beb4674ce77e8302de97975000e7 *gd78-12-16d1t03.flac
9e92ee942a058162cd93ba49751df30f *gd78-12-16d1t04.flac
eb8ea9c444c7fabc9d337e3f15883bbd *gd78-12-16d1t05.flac
caa6268d0c259830d83ce1931cfaeb3a *gd78-12-16d1t06.flac
482218e15c9f40bd2d213727c5f34e88 *gd78-12-16d1t07.flac
867964efc0dd9d886af06c98e7f05cff *gd78-12-16d1t08.flac
17c199b088deea3962b97b0f018db599 *gd78-12-16d1t09.flac
7043ff729598dcfc95b39b50792d89cb *gd78-12-16d1t10.flac
16c24ebdb4bae42faccc7142a5304736 *gd78-12-16d2t01.flac
2f610a6e7b6e7c1ab87785a7e9326588 *gd78-12-16d2t02.flac
f07e074906d805e47227984ba4742912 *gd78-12-16d2t03.flac
a6e06b50e133d4ebd514e0f76f3ce895 *gd78-12-16d2t04.flac
2cdf6af81bb495c090ab0e4c09ab3684 *gd78-12-16d2t05.flac
e83539a1f52b934c3ecafcb701036cd0 *gd78-12-16d3t01.flac
3114b2d74d520da479e6b65a0b407f3e *gd78-12-16d3t02.flac
3e3850bd12e54e5800170236429ad998 *gd78-12-16d3t03.flac
2298710c5e4d99266b0f4e89215cc0da *gd78-12-16d3t04.flac
f233e2565548ebe358703db2cf6943f4 *gd78-12-16d3t05.flac
a7eab940dd49b23a0ae81bcaf6f29b3e *gd78-12-16d3t06.flac
c37cab64a0896ebf1f995778f5ab81a1 *gd78-12-16d3t07.flac

Comments
Other Sources (comments)
Source: AUD, unknown mics:... (0) Robert Wagner Nak... (0) flac16 ; Recording Info:... (0)
Date User Comment
01/30/2007 charlie miller This is a great recording of a very high energy show.
etreedb.org
For administrative requests email contact@etreedb.org
This website written by Tom H Anderson and maintained by the etreedb.org community.

Cached: Wed, 18 Sep 2019 12:35:31 EDT