Grateful Dead 07/07/78
Red Rocks Amphitheatre, Morrison, CO
Source Summary
flac16; AUD Source: Recording by Bob Wagner. Sony ECM-54P's > Sony TC-158. Transfer: MAC > Teac AN-180 outboard Dolby unit > Sony TC 755 open reel deck > Scotch Classic reels at 7.5 IPS, Dolby-B, by Jerry Moore. Reels > Sony TC 850 open reel deck > Teac AN-180 Dolby unit > Sony SBM-1 (super bit mapper) > Tascam CD-Rw4U stand alone burner, by Rob Berger. CDR > EAC > WavMerge > CD-Wave (new track ID's) > TLH (SBE-OK, lossless compression, and checksums) > FLAC, Feb 2007
GRATEFUL DEAD
Red Rocks
Morrison CO
07-07-1978

Disc One (66:23)

01 Jack Straw
02 Candyman
03 Me & My Uncle >
04 Big River
05 Friend of the Devil
06 Cassidy
07 Tennessee Jed
08 Passenger
09 Peggy-O
10 Music Never Stopped
-- set break --

Disc Two (48:05)

01 Cold Rain & Snow
02 Beat it on Down the Line
03 Scarlet Begonias >
04 Fire on the Mountain
05 Dancin' in the Streets >
06 Drums (fades out, tape flip)

Disc Three (47:11)

01 Space >
02 Not Fade Away >
03 Black Peter >
04 Around & Around
-- encores --
05 U.S. Blues
06 Johnny B. Goode

AUD Source: Recording by Bob Wagner. Sony ECM-54P's > Sony TC-158.

Transfer: MAC > Teac AN-180 outboard Dolby unit > Sony TC 755 open reel deck > Scotch Classic reels at 7.5 IPS, Dolby-B, by Jerry Moore. Reels > Sony TC 850 open reel deck > Teac AN-180 Dolby unit > Sony SBM-1 (super bit mapper) > Tascam CD-Rw4U stand alone burner, by Rob Berger, Dec 2003. CDR > EAC > WavMerge > CD-Wave (new track ID's) > TLH (SBE-OK, lossless compression, and checksums) > FLAC, Feb 2007.

The recording is Jerry Moore's reel copy of Bob Wagner's cassette master.
Jerry states: "This, I think, is the best copy of this you'll ever hear,
as I understand the master was lost in a fire many years back."


shntool

    length     expanded size   cdr  WAVE problems filename
     6:15.69       66312332    ---   --   ---xx   gd1978-07-07d1t01.flac
     6:44.53       71390300    ---   --   ---xx   gd1978-07-07d1t02.flac
     2:55.38       30959420    ---   --   ---xx   gd1978-07-07d1t03.flac
     5:37.23       59500940    ---   --   ---xx   gd1978-07-07d1t04.flac
     8:38.02       91379948    ---   --   ---xx   gd1978-07-07d1t05.flac
     5:00.38       53009420    ---   --   ---xx   gd1978-07-07d1t06.flac
     8:59.10       95103164    ---   --   ---xx   gd1978-07-07d1t07.flac
     5:22.41       56897276    ---   --   ---xx   gd1978-07-07d1t08.flac
     8:44.31       92506556    ---   --   ---xx   gd1978-07-07d1t09.flac
     8:05.19       85598732    ---   --   ---xx   gd1978-07-07d1t10.flac
     6:44.22       71317388    ---   --   ---xx   gd1978-07-07d2t01.flac
     4:15.36       45066716    ---   --   ---xx   gd1978-07-07d2t02.flac
     9:44.62      103163468    ---   --   ---xx   gd1978-07-07d2t03.flac
     9:35.63      101578220    ---   --   ---xx   gd1978-07-07d2t04.flac
     8:32.33       90394460    ---   --   ---xx   gd1978-07-07d2t05.flac
     9:12.22       97424588    ---   --   ---xx   gd1978-07-07d2t06.flac
     5:48.24       61443692    ---   --   ---xx   gd1978-07-07d3t01.flac
    11:25.37      120921068    ---   --   ---xx   gd1978-07-07d3t02.flac
    11:28.42      121462028    ---   --   ---xx   gd1978-07-07d3t03.flac
     8:30.70       90128684    ---   --   ---xx   gd1978-07-07d3t04.flac
     5:36.73       59442140    ---   --   ---xx   gd1978-07-07d3t05.flac
     4:20.66       46019276    ---   --   ---xx   gd1978-07-07d3t06.flac
   161:39.49     1711019816 B                     (totals for 22 files, 0.5305 overall compression ratio)

There were no sector boundary errors.
ffp
gd1978-07-07d1t01.flac:91261f2a60dc79ea64474a5a045ef2d2
gd1978-07-07d1t02.flac:fb79a428ddca18bc25da4d41095ca926
gd1978-07-07d1t03.flac:3fdc344c0346b71e8edcee3c0ea01e0d
gd1978-07-07d1t04.flac:bbbc7973d8ad022e14381c8a2fb43dc8
gd1978-07-07d1t05.flac:c9891c9848575d84849d05dc45b45062
gd1978-07-07d1t06.flac:02a4291f26dabd2b075d3e369f56b1f5
gd1978-07-07d1t07.flac:b5fa0e81be691bd13293db191e596cea
gd1978-07-07d1t08.flac:5dddbdc0a521877be353fcfb5f2b1cb8
gd1978-07-07d1t09.flac:eeabe4486e37bb8936c9a284e1fdd761
gd1978-07-07d1t10.flac:5fd890d81b8a32a034d5ec4d874a7261
gd1978-07-07d2t01.flac:f9bc1161332023c8b39b0f707f19e5dd
gd1978-07-07d2t02.flac:fd696fc21bba3a259395b9122597f1bb
gd1978-07-07d2t03.flac:911bba7744239259892218f44a12a4e3
gd1978-07-07d2t04.flac:26663054623de487434d5c18f2694146
gd1978-07-07d2t05.flac:14f09ce3fe320501cd3f8e5ee2ad165d
gd1978-07-07d2t06.flac:828eb239e2c1d7b2ed994bb6c7831381
gd1978-07-07d3t01.flac:b9e7d043e2d43dde9257ce14d39cc9cc
gd1978-07-07d3t02.flac:ebb783430c039c8f324c6a19320aacaa
gd1978-07-07d3t03.flac:9c37877d86c1e5c8f0c483a227328214
gd1978-07-07d3t04.flac:69434e0da984ef6a34a5bd4a0575ceee
gd1978-07-07d3t05.flac:b30e20cbbc6d7e02c4d6dd59a58e4c1e
gd1978-07-07d3t06.flac:85f81d24364930b7e3fe0361f8123a25
56256589c43ae7590eac9a2f3aaa80b2 *gd1978-07-07d1t01.flac
415e755402f20ba6e1ce98b0dfa2ce39 *gd1978-07-07d1t02.flac
29c5dabfcdc8443efe81cf283e882ff1 *gd1978-07-07d1t03.flac
c504f5b3a305d77f0210f56afffee83c *gd1978-07-07d1t04.flac
4f9601a3fc12872214a48631bdd05170 *gd1978-07-07d1t05.flac
43bac5040cf14d511ceb5eb3dc33453e *gd1978-07-07d1t06.flac
1f5cc7284f5b943fa6749bc0b88bedfe *gd1978-07-07d1t07.flac
661139656ee667a301313c4c649dabd2 *gd1978-07-07d1t08.flac
37adf9227ba63b3498adea655770aa7a *gd1978-07-07d1t09.flac
f886bab3ee4375e1773ff18374fcf4ef *gd1978-07-07d1t10.flac
efdc018c1ca51afdee5ceb60ad856c6f *gd1978-07-07d2t01.flac
cf35cbf42b271186776111f7a43f3a4d *gd1978-07-07d2t02.flac
3c5691188ef3acd0a3685a94e2ca255f *gd1978-07-07d2t03.flac
7d04d0da01fec8b3a5cd1dfe8c518798 *gd1978-07-07d2t04.flac
bd39fbc58e33d70b47296b97d8920892 *gd1978-07-07d2t05.flac
05fd109b6bda502649a5aa3c3e37f716 *gd1978-07-07d2t06.flac
9e038f8bb28d6be018d170b3c330536e *gd1978-07-07d3t01.flac
e5c03736120a2c0ae12958e9001677bb *gd1978-07-07d3t02.flac
c7b45be605d471847dc0cc04c9c70da0 *gd1978-07-07d3t03.flac
0043e90182e02b4a58419fdf5be5eb19 *gd1978-07-07d3t04.flac
f4ea3e384430384d5a498d524a5c97e1 *gd1978-07-07d3t05.flac
4ae2a03fb971c78008f3fe6d8ec51d13 *gd1978-07-07d3t06.flac

Comments
etreedb.org
For administrative requests email contact@etreedb.org
This website written by Tom H Anderson and maintained by the etreedb.org community.

Cached: Wed, 16 Oct 2019 18:29:29 EDT