Grateful Dead 04/08/78
Veterans Memorial Coliseum, Jacksonville, FL
Source Summary
flac16; 7" Betty Board Reel @ 7 1/2 ips > PCM501ES > Fostex D5 > optical S/PDIF out (Jace's tape) > disk WBOTB Transferred by Tim Deibert 3-10-02
Grateful Dead
April 8, 1978
Veterans Coliseum, Jacksonville, FL

7" Betty Board Reel @ 7 1/2 ips > PCM501ES > Fostex D5 > optical S/PDIF out (Jace's tape) > disk
Transferred by Tim Deibert 3-10-02

Disc 1 of 3: [64:13]

Set One:
1. Missippi Half Step (12:40)
2. Me & My Uncle -> (3:06)
3. Big River (7:10)
4. They Love Each Other (8:24)
5. Looks Like Rain (10:11)
6. Deal (6:38)
7. El Paso (6:30)
8. It Must Have Been The Roses (9:29)

Disc 2 of 3: [44:07]

1. Lazy Lightin' -> (3:47)
2. Supplication (5:29)
Set Two:
3. Samson & Delilah (8:34)
4. Scarlet Begonias -> (11:51)
5. Fire On The Mountain (14:21)

Disc 3 of 3: [62:51]

1. Estimated Prophet -> (11:48)
2. Eyes Of The World -> (11:30)
3. Drums -> (15:18)
4. Space -> (5:49)
5. Close Encounters -> (0:32)
6. Sugar Magnolia (11:00)
7. E: Saturday Night (6:49)

NOTES:
* Sound Forge 5.0 peak normalization to 99%.
* Tuning and crowds preserved.

notes from trailmix 3-16-07:

� WBOTB Project
� d3t01 dropout @ 3:32 (missing 5-10 seconds of music)
� 1st set fits on one 80 min cd-r, and the 2nd set is continuous.
� these shns were decoded to wav, SBE's fixed (by set), then encoded to flac16 (level 6). Then I fixed SBE's while in shn format, decoded them to wav producing an identical wav md5.
� Although the original shns were created in 2002, they are not in circulation and do not exist in the database (which is why these shns were converted, fixed and seeded).
� Many thanks to Tim D. and the WBOTB crew for making this available.



    length     expanded size   cdr  WAVE problems filename
    12:40.33      134141660    ---   --   ---xx   gd1978-04-08d1t01.shn
     3:06.59       32949212    ---   --   ---xx   gd1978-04-08d1t02.shn
     7:10.40       75946124    ---   --   ---xx   gd1978-04-08d1t03.shn
     8:24.22       88957388    ---   --   ---xx   gd1978-04-08d1t04.shn
    10:11.34      107860284    -b-   --   ---xx   gd1978-04-08d1t05.shn
     6:38.26       70268396    ---   --   ---xx   gd1978-04-08d1t06.shn
     6:30.37       68883068    ---   --   ---xx   gd1978-04-08d1t07.shn
     9:29.18      100413980    ---   --   ---xx   gd1978-04-08d1t08.shn
     3:47.69       40205132    ---   --   ---xx   gd1978-04-08d2t01.shn
     5:29.54       58163244    -b-   --   ---xx   gd1978-04-08d2t02.shn
     8:34.39       90761148    -b-   --   ---xx   gd1978-04-08d2t03.shn
    11:51.61      125563916    ---   --   ---xx   gd1978-04-08d2t04.shn
    14:21.55      152009804    ---   --   ---xx   gd1978-04-08d2t05.shn
    11:48.32      124966508    ---   --   ---xx   gd1978-04-08d3t01.shn
    11:30.15      121751532    -b-   --   ---xx   gd1978-04-08d3t02.shn
    15:18.34      162015212    ---   --   ---xx   gd1978-04-08d3t03.shn
     5:49.09       61584812    ---   --   ---xx   gd1978-04-08d3t04.shn
     0:32.71        5811836    ---   --   ---xx   gd1978-04-08d3t05.shn
    11:00.35      116506668    -b-   --   ---xx   gd1978-04-08d3t06.shn
     6:49.50       72266236    -b-   --   ---xx   gd1978-04-08d3t07.shn
   171:06.44     1811026160 B                     (totals for 20 files, 0.4938 overall compression ratio)


    length     expanded size   cdr  WAVE problems filename
    12:40.33      134141660    ---   --   ---xx   gd1978-04-08d1t01.flac
     3:06.59       32949212    ---   --   ---xx   gd1978-04-08d1t02.flac
     7:10.40       75946124    ---   --   ---xx   gd1978-04-08d1t03.flac
     8:24.22       88957388    ---   --   ---xx   gd1978-04-08d1t04.flac
    10:11.33      107858060    ---   --   ---xx   gd1978-04-08d1t05-fixed.flac
     6:38.26       70268396    ---   --   ---xx   gd1978-04-08d1t06-fixed.flac
     6:30.37       68883068    ---   --   ---xx   gd1978-04-08d1t07-fixed.flac
     9:29.18      100413980    ---   --   ---xx   gd1978-04-08d1t08-fixed.flac
     3:47.69       40205132    ---   --   ---xx   gd1978-04-08d2t01-fixed.flac
     5:29.56       58167356    ---   --   ---xx   gd1978-04-08d2t02-fixed.flac
     8:34.38       90759020    ---   --   ---xx   gd1978-04-08d2t03-fixed.flac
    11:51.61      125563916    ---   --   ---xx   gd1978-04-08d2t04-fixed.flac
    14:21.55      152009804    ---   --   ---xx   gd1978-04-08d2t05-fixed.flac
    11:48.32      124966508    ---   --   ---xx   gd1978-04-08d3t01-fixed.flac
    11:30.15      121751324    ---   --   ---xx   gd1978-04-08d3t02-fixed.flac
    15:18.34      162015212    ---   --   ---xx   gd1978-04-08d3t03-fixed.flac
     5:49.09       61584812    ---   --   ---xx   gd1978-04-08d3t04-fixed.flac
     0:32.71        5811836    ---   --   ---xx   gd1978-04-08d3t05-fixed.flac
    11:00.36      116508716    ---   --   ---xx   gd1978-04-08d3t06-fixed.flac
     6:49.51       72267596    ---   --   ---xx   gd1978-04-08d3t07-fixed.flac
   171:06.45     1811029120 B                     (totals for 20 files, 0.4736 overall compression ratio)
527eb193bba45953bb1d67fd6576fdef *gd1978-04-08d1t01.flac
5a3f9f1f4d67f07a95755dad20c834c9 *gd1978-04-08d1t02.flac
c5919e48d125811bb8cbd93ff11bf02b *gd1978-04-08d1t03.flac
a57c0ccca77d64866fb6b01a0a7d7084 *gd1978-04-08d1t04.flac
f534bb474fe228c3557f5fd9ccc0a195 *gd1978-04-08d1t05-fixed.flac
ff6c5a21fb618ed998451cdfc7dbb71e *gd1978-04-08d1t06-fixed.flac
d99a18f3971f5479337743ab969a6580 *gd1978-04-08d1t07-fixed.flac
69b21c39e112cc92b78b6a180af10746 *gd1978-04-08d1t08-fixed.flac
75bac370e3bbb04325e1ebfb66cb233e *gd1978-04-08d2t01-fixed.flac
ae440650c761aed180f4fcc6c2d6e763 *gd1978-04-08d2t02-fixed.flac
aae87ac65611bf904b41cf61a0292f81 *gd1978-04-08d2t03-fixed.flac
57a6ca90333aca55f82718ed59d63aeb *gd1978-04-08d2t04-fixed.flac
6607b9edc09a2b6e24f40eaf97f21465 *gd1978-04-08d2t05-fixed.flac
eaf91bb91c72dbc9962e8b9cbb6abd84 *gd1978-04-08d3t01-fixed.flac
71416d14798ed0c224e95620b78a5d61 *gd1978-04-08d3t02-fixed.flac
02b981c8e82bb943579b49f4c2e00593 *gd1978-04-08d3t03-fixed.flac
68b264f20dba0b95ee42e87e2aa21c16 *gd1978-04-08d3t04-fixed.flac
8c16258910dd347129221e93e01bc1bf *gd1978-04-08d3t05-fixed.flac
7acd8b9074e6f70280bf5697fff43e5c *gd1978-04-08d3t06-fixed.flac
8350b230989239e0899aa888716533ff *gd1978-04-08d3t07-fixed.flac
ffp
gd1978-04-08d1t01.flac:5bb5cb0ffb0c631bf175c482b53df4a9
gd1978-04-08d1t02.flac:eb14f5666798de2c0005471b076250cb
gd1978-04-08d1t03.flac:b8fc3020f1a2af731d41e6b93c84cf66
gd1978-04-08d1t04.flac:86d5a6df948892ed8b0d0f2624e21e3c
gd1978-04-08d1t05-fixed.flac:297956fb8cb55b954921d7029063416b
gd1978-04-08d1t06-fixed.flac:ebdec15e6b34d62fd2f37534ae446bb9
gd1978-04-08d1t07-fixed.flac:4212a70b9bec99d15b262b388112bce9
gd1978-04-08d1t08-fixed.flac:d283b7cac65ed5e5962359c7251e26ec
gd1978-04-08d2t01-fixed.flac:e1e5846e457054f6eaf94ee0fea3aeed
gd1978-04-08d2t02-fixed.flac:213eda7090d8c1f0df1746a9a8b92ee5
gd1978-04-08d2t03-fixed.flac:b93b300ed24a80589f3c8068be0b1e0c
gd1978-04-08d2t04-fixed.flac:c6c05499c12baea149ae4ee542479765
gd1978-04-08d2t05-fixed.flac:2f622dde124c349eebc7eb667a308d85
gd1978-04-08d3t01-fixed.flac:45d97723ae06851d834c8a6794c1ad23
gd1978-04-08d3t02-fixed.flac:b56bb7fcb6f6194a139d12bf557f2908
gd1978-04-08d3t03-fixed.flac:9e48646c4d3fed85f2e8b95143bb1e8a
gd1978-04-08d3t04-fixed.flac:9ddad2a68c3acfd1e4436f14d195bdd3
gd1978-04-08d3t05-fixed.flac:91c67522cc26239be121de022ead845f
gd1978-04-08d3t06-fixed.flac:02bb0d7c322e020cdf11025e33f8b550
gd1978-04-08d3t07-fixed.flac:1dc560effe0a956eff7fcb7baa54903f

Comments
Other Sources (comments)
SBD> Bettyboard 7" reels @... (1) SBD; transferred and seeded... (0) flac16 ; Recording Info:... (0) flac24 ; Source: SBD >... (0) flac16 ; Source: SBD >... (0)
Date User Comment
03/17/2007 trailmix The good news is that there's no dropout @ 3:32 on d3t01. The bad news is that it's actually @ 3:33 on d3t02
etreedb.org
For administrative requests email contact@etreedb.org
This website written by Tom H Anderson and maintained by the etreedb.org community.

Cached: Sat, 19 Oct 2019 15:24:59 EDT