Grateful Dead 05/07/78
Field House, Rensselaer Polytechnic Institute, Troy, NY
Source Summary
flac16; Source: Audience FOB Recording Media: Maxell UDXL II 90 Lineage: Nakamichi CM300's > Sony 158SD > MAC Transfer: MAC > Nakamichi DR-1 > Benchmark ADC-1 > AES > Sound Devices 722 > wav Taped by: B. Glassberg Transfer by: A. Egert Mastering by: D. McCabe
MotB Release: 0022/16-bit
Release Date: March 24, 2007

Band: Grateful Dead
Date: 05/07/1978
Venue: RPI Field House, Rensselaer Polytechnic Institute
Location: Troy, NY

Source: Audience FOB Recording
Media: Maxell UDXL II 90
Lineage: Nakamichi CM300's > Sony 158SD > MAC
Transfer: MAC > Nakamichi DR-1 > Benchmark ADC-1 > AES > Sound Devices 722 > wav
Taped by: B. Glassberg
Transfer by: A. Egert
Mastering by: D. McCabe

DISC ONE
Set I:
01 tuning*
02 [crossfade in**] Jack Straw
03 Dire Wolf
04 Finiculi Finicula
05 Mexicali Blues >
06 Mama Tried
07 Tennessee Jed
08 It's All Over Now
09 Friend Of The Devil
10 Passenger

DISC TWO
Set I: (cont'd)
01 Brown Eyed Women
02 The Music Never Stopped
Set II:
03 Scarlet Begonias >
04 Fire On The Mountain
05 Estimated Prophet >
06 He's Gone >

DISC THREE
Set II: (cont'd)
01 Drums >
02 Aiko Aiko >
03 The Other One >
04 Black Peter >
05 Around & Around
Encore
06 U.S. Blues


Patches:
*d1t01 "Tuning" from gd78-05-07.sony.vernon.8763.sbeok.shnf
** first 1min 13sec of d1t02 "Jack Straw" patched at from gd78-05-07.sony.vernon.8763.sbeok.shnf, I used a long 5 sec crossfade between the two sources.



SHNTOOL OUTPUT:
    length     expanded size   cdr  WAVE problems filename
     5:11.04       54869852    ---   --   ---xx   gd1978-05-07.motb.0022.d1t01.flac
     9:11.57       97330508    ---   --   ---xx   gd1978-05-07.motb.0022.d1t02.flac
     5:32.43       58665980    ---   --   ---xx   gd1978-05-07.motb.0022.d1t03.flac
     3:13.30       34115804    ---   --   ---xx   gd1978-05-07.motb.0022.d1t04.flac
     3:49.34       40475612    ---   --   ---xx   gd1978-05-07.motb.0022.d1t05.flac
     4:57.03       52397900    ---   --   ---xx   gd1978-05-07.motb.0022.d1t06.flac
    10:10.62      107749868    ---   --   ---xx   gd1978-05-07.motb.0022.d1t07.flac
    10:26.14      110459372    ---   --   ---xx   gd1978-05-07.motb.0022.d1t08.flac
    10:52.06      115026956    ---   --   ---xx   gd1978-05-07.motb.0022.d1t09.flac
     6:31.43       69073580    ---   --   ---xx   gd1978-05-07.motb.0022.d1t10.flac
     8:07.33       85984460    ---   --   ---xx   gd1978-05-07.motb.0022.d2t01.flac
     9:07.36       96575516    ---   --   ---xx   gd1978-05-07.motb.0022.d2t02.flac
    11:37.02      122955548    ---   --   ---xx   gd1978-05-07.motb.0022.d2t03.flac
    12:46.15      135157724    ---   --   ---xx   gd1978-05-07.motb.0022.d2t04.flac
    12:00.15      127043324    ---   --   ---xx   gd1978-05-07.motb.0022.d2t05.flac
    12:16.41      129926876    ---   --   ---xx   gd1978-05-07.motb.0022.d2t06.flac
    15:48.67      167384828    ---   --   ---xx   gd1978-05-07.motb.0022.d3t01.flac
     9:26.33       99920060    ---   --   ---xx   gd1978-05-07.motb.0022.d3t02.flac
     6:57.73       73730540    ---   --   ---xx   gd1978-05-07.motb.0022.d3t03.flac
    12:19.63      130507820    ---   --   ---xx   gd1978-05-07.motb.0022.d3t04.flac
    10:43.00      113425244    ---   --   ---xx   gd1978-05-07.motb.0022.d3t05.flac
     6:21.25       67267244    ---   --   ---xx   gd1978-05-07.motb.0022.d3t06.flac
   197:28.24     2090044616 B                     (totals for 22 files, 0.6029 overall compression ratio)

ffp
gd1978-05-07.motb.0022.d1t01.flac:176f425b7942babd0a3b310f567eb135
gd1978-05-07.motb.0022.d1t02.flac:9c48ade36ef7759d9455250971a1e687
gd1978-05-07.motb.0022.d1t03.flac:a67bbbcf606ce54613d121fffad104ff
gd1978-05-07.motb.0022.d1t04.flac:c22d258119b480ca94f0be13486313ec
gd1978-05-07.motb.0022.d1t05.flac:a2e63edc3c333e69f0fdd5207a9db12e
gd1978-05-07.motb.0022.d1t06.flac:6ccee391940a9a98c6b1c467eedd6ed3
gd1978-05-07.motb.0022.d1t07.flac:127478c6e2bb290d1d4aa0214e40125d
gd1978-05-07.motb.0022.d1t08.flac:37740cdcedf3872b722145012e693b91
gd1978-05-07.motb.0022.d1t09.flac:0b20d958c94470aa5aaa25e782e46805
gd1978-05-07.motb.0022.d1t10.flac:043bf5cf818498492110b75cbb2f4ddf
gd1978-05-07.motb.0022.d2t01.flac:6d845d83ab7e5b49151e8100e25a6e8d
gd1978-05-07.motb.0022.d2t02.flac:a09b5b41a9b39672392ddff9f2dbdf49
gd1978-05-07.motb.0022.d2t03.flac:94599458b602f2d96701c581d7061499
gd1978-05-07.motb.0022.d2t04.flac:8ebdc5bfb68e738b6b699ba8efa45991
gd1978-05-07.motb.0022.d2t05.flac:6fa5758fde4b8a5b3079b0a27b751094
gd1978-05-07.motb.0022.d2t06.flac:29e6d27ab5bcfa0b6906997153331239
gd1978-05-07.motb.0022.d3t01.flac:6cce1a5f613b3d7c603263fa3888d460
gd1978-05-07.motb.0022.d3t02.flac:dd4371884da11d8077b8b4593928b9e5
gd1978-05-07.motb.0022.d3t03.flac:28daf93b8b43badcb51eb8948b571020
gd1978-05-07.motb.0022.d3t04.flac:61050f908eae51e3c18c3a075b6ea61f
gd1978-05-07.motb.0022.d3t05.flac:59b95b86514ecc4755f2af3d176aeea1
gd1978-05-07.motb.0022.d3t06.flac:baaf0348aae685ee69901a4d33798aa3
24e4674f77b579dd051834f11662d84a *gd1978-05-07.motb.0022.d1t01.flac
f847a8a1398348c933cb8f7f68718909 *gd1978-05-07.motb.0022.d1t02.flac
abeb81c1c82c519571866a54d81c86b0 *gd1978-05-07.motb.0022.d1t03.flac
a0960cbd84436afd7c050175cdf23a75 *gd1978-05-07.motb.0022.d1t04.flac
dcd8d5d3b849d2f0f37a609f0b1d4b48 *gd1978-05-07.motb.0022.d1t05.flac
e11208e200b3e896b9f7bf13f289d0aa *gd1978-05-07.motb.0022.d1t06.flac
6bc0d663a90ca41f815fd2928db5128e *gd1978-05-07.motb.0022.d1t07.flac
3ebd50fbaec2a92dc3703b3ef69411ad *gd1978-05-07.motb.0022.d1t08.flac
49301a71670226f7b67b7298f319779b *gd1978-05-07.motb.0022.d1t09.flac
86a0701f5dbffdd9930dcdc3b04ef16a *gd1978-05-07.motb.0022.d1t10.flac
4a722155e55bc58de0b6a7d2417c72c0 *gd1978-05-07.motb.0022.d2t01.flac
65777d2824b9081bc152f7ea32c33269 *gd1978-05-07.motb.0022.d2t02.flac
069e9ed031f187108cb1dd441bf0713c *gd1978-05-07.motb.0022.d2t03.flac
c42095ce11b7f5537e6f23b2204c24b5 *gd1978-05-07.motb.0022.d2t04.flac
10385ea5023a2b0e7dcb3fbc213798f3 *gd1978-05-07.motb.0022.d2t05.flac
df456ceae2011706703c92a766b8394a *gd1978-05-07.motb.0022.d2t06.flac
0edcce27df75ca116d15236c8ad5e81e *gd1978-05-07.motb.0022.d3t01.flac
e26e3ff0b89e8ea67fde2791500e8c5c *gd1978-05-07.motb.0022.d3t02.flac
7e336b154d2b7b83295ddf7eaf5887fa *gd1978-05-07.motb.0022.d3t03.flac
515d05fd38bbc912340e1e4f713eb243 *gd1978-05-07.motb.0022.d3t04.flac
fac7a7c18d802154ecf58565fd4577a9 *gd1978-05-07.motb.0022.d3t05.flac
4e67f7a914bd7efecfb9477f685575b6 *gd1978-05-07.motb.0022.d3t06.flac

Comments
etreedb.org
For administrative requests email contact@etreedb.org
This website written by Tom H Anderson and maintained by the etreedb.org community.

Cached: Sun, 5 Jul 2020 02:34:07 EDT