Grateful Dead 04/14/78
Cassell Coliseum, Virginia Polytechnic, Blacksburg, VA
Source # 83717
Entered by Matt Vernon
Checksums ffp , flac-md5
Disc Counts 2 / 3
Media Size
Date Circulated
Date Added
03/25/2007
03/26/2007
Source Summary
flac16; Recording Info: SBD -> Master Reel -> PCM -> Dat (44.1k) Transfer Info: Dat -> CD -> Samplitude Professional v9.02 -> FLAC All Transfers and Mastering By Charlie Miller
Grateful Dead - April 14, 1978
Cassell Coliseum - Blacksburg, VA
Virginia Polytechnic Institute and State University

Recording Info:
SBD -> Master Reel -> PCM -> Dat (44.1k)

Transfer Info:
Dat -> CD -> Samplitude Professional v9.02 -> FLAC
(3 Discs Audio / 2 Discs FLAC)

All Transfers and Mastering By Charlie Miller
charliemiller87@earthlink.net
March 24, 2007

Notes:
-- Set 2 is seamless

Set 1:
d1t01 - Tuning
d1t02 - The Promised Land
d1t03 - Tennessee Jed
d1t04 - Me And My Uncle ->
d1t05 - Big River
d1t06 - Peggy-O
d1t07 - Looks Like Rain
d1t08 - Dire Wolf
d1t09 - It's All Over Now
d1t10 - Dupree's Diamond Blues
d1t11 - The Music Never Stopped

Set 2:
d2t01 - Tuning
d2t02 - Samson And Delilah
d2t03 - Smokestack Lightning tease
d2t04 - Ship Of Fools
d2t05 - Dancing In The Street ->
d2t06 - Drums ->
d3t01 - Space ->
d3t02 - The Other One ->
d3t03 - Black Peter ->
d3t04 - Sugar Magnolia

Encore:
d3t05 - Johnny B. Goode


SHNTOOL OUTPUT:
    length     expanded size   cdr  WAVE problems filename
     1:22.10       14488364    ---   --   -----   gd78-04-14d1t01.wav
     5:09.12       54535868    ---   --   -----   gd78-04-14d1t02.wav
     9:39.19      102180332    ---   --   -----   gd78-04-14d1t03.wav
     3:00.10       31775564    ---   --   -----   gd78-04-14d1t04.wav
     5:47.59       61349612    ---   --   -----   gd78-04-14d1t05.wav
     9:14.60       97866764    ---   --   -----   gd78-04-14d1t06.wav
     9:35.24      101486492    ---   --   -----   gd78-04-14d1t07.wav
     5:00.47       53030588    ---   --   -----   gd78-04-14d1t08.wav
     8:41.74       92078492    ---   --   -----   gd78-04-14d1t09.wav
     6:56.33       73460060    ---   --   -----   gd78-04-14d1t10.wav
     8:45.49       92725292    ---   --   -----   gd78-04-14d1t11.wav
     2:03.33       21774860    ---   --   -----   gd78-04-14d2t01.wav
     7:47.47       82489388    ---   --   -----   gd78-04-14d2t02.wav
     2:34.59       27304412    ---   --   -----   gd78-04-14d2t03.wav
     8:01.15       84883724    ---   --   -----   gd78-04-14d2t04.wav
    16:42.04      176762252    ---   --   -----   gd78-04-14d2t05.wav
    19:57.65      211303724    ---   --   -----   gd78-04-14d2t06.wav
     5:12.17       55076828    ---   --   -----   gd78-04-14d3t01.wav
     8:14.28       87207500    ---   --   -----   gd78-04-14d3t02.wav
    10:53.30      115259804    ---   --   -----   gd78-04-14d3t03.wav
    10:30.07      111148508    ---   --   -----   gd78-04-14d3t04.wav
     4:38.29       49107452    ---   --   -----   gd78-04-14d3t05.wav
   169:48.56     1797295880 B                     (totals for 22 files)
ffp
gd78-04-14d1t01.flac:db65fac40e2d94eb3a66171567bf7eee
gd78-04-14d1t02.flac:fea541e852eb7b09403cf416d40cbb00
gd78-04-14d1t03.flac:fce33fa73bcfc5cdebd0ba88d5c1032c
gd78-04-14d1t04.flac:4931d0523e7f97bd77088938ede45d1d
gd78-04-14d1t05.flac:37b455e370beca814d438cd5b34a5b12
gd78-04-14d1t06.flac:788239d49a3e28b97f8921488eb5b38f
gd78-04-14d1t07.flac:27a45aa5ac473a3e14471e2a9652f0fe
gd78-04-14d1t08.flac:91ed1d2e67837694de9335f97cd5a6a9
gd78-04-14d1t09.flac:23efa87e342fa0fb9500fa2542c3ff71
gd78-04-14d1t10.flac:232255dcd1a8849c12575ead4e34795f
gd78-04-14d1t11.flac:6c212e67358c8adbaefd80da3408d2f9
gd78-04-14d2t01.flac:1526a11919c04e8b0ff5c6fe8cefaf6d
gd78-04-14d2t02.flac:b0a95a266978e65d003ab195cc09e355
gd78-04-14d2t03.flac:6eec5005aced24c3025147bc7c7f3784
gd78-04-14d2t04.flac:73878614ff0c97467154e41a4a2c3f4f
gd78-04-14d2t05.flac:daebd9947a0eda29c506c512554b9827
gd78-04-14d2t06.flac:eef2a12f3050516bd09315bc8376799f
gd78-04-14d3t01.flac:22bfb54d87a13cf3ce4d79711fd14ddc
gd78-04-14d3t02.flac:c555070408f4779998d1d5f22d97c0e7
gd78-04-14d3t03.flac:1462e567b9dc8e1384bace1ce445e275
gd78-04-14d3t04.flac:5c086b155024480ae4da2277599f151d
gd78-04-14d3t05.flac:652ad4edf3791dc82ee9274b1c4326c6
a46b385e09d2021b992ac561fc971d41 *gd78-04-14d1t01.flac
551de40a911dfc1124590a531e0b9535 *gd78-04-14d1t02.flac
9d2d3324ebd9b02eb0842cde822bb591 *gd78-04-14d1t03.flac
2405473a09d85817e6d5365908fa43f9 *gd78-04-14d1t04.flac
e239051e35f375c8365d4a6faed2418a *gd78-04-14d1t05.flac
76f29cd11f34e2a2b4dc0f4e8f93ec37 *gd78-04-14d1t06.flac
bebcf820adb7290f050fcba9570ebf03 *gd78-04-14d1t07.flac
69ba0a091c027c74891175e140766250 *gd78-04-14d1t08.flac
d400dc0e0465b9cf2007b05832a42c7f *gd78-04-14d1t09.flac
77fed3a9210837e1a26eb159d12ebeed *gd78-04-14d1t10.flac
32197efc7dbc76d15942babd64b10478 *gd78-04-14d1t11.flac
c9ffb401b29e9db12ba6ca658c07cc90 *gd78-04-14d2t01.flac
01af2984add508b9bdcc440d8867df35 *gd78-04-14d2t02.flac
292f6d12ed98726515046aa480e2e236 *gd78-04-14d2t03.flac
71c258ca812a0512137e904faa8d3fa4 *gd78-04-14d2t04.flac
046775c6023695870e3db2f6c4d36725 *gd78-04-14d2t05.flac
13faf1910023236defd722cbd2f3e16c *gd78-04-14d2t06.flac
d9fa65069ad5c14935c0cbccb19307ce *gd78-04-14d3t01.flac
5642b807f98725598a032a2385691f6a *gd78-04-14d3t02.flac
557534da552f11d5348e566a26122f57 *gd78-04-14d3t03.flac
e005e162ae2a47f571e3f8c1cfe7c198 *gd78-04-14d3t04.flac
a2914b874e1eb836cd3085e22e62144e *gd78-04-14d3t05.flac

Comments
Other Sources (comments)
Betty's 7 inch, 2 track,... (8)
Date User Comment
02/25/2010 wildmack1 many thanks ya'll
i'll leave it up for a while
etreedb.org
For administrative requests email contact@etreedb.org
This website written by Tom H Anderson and maintained by the etreedb.org community.

Cached: Tue, 17 Sep 2019 13:23:43 EDT