Grateful Dead 11/21/78
Community War Memorial Auditorium, Rochester, NY
Source Summary
flac16; Lineage: SBD > ? > Cassettes Transfer: Maxell XL-II's > Nakamichi BX-125 (no Dolby) > Audiophile 2496 > Soundforge > CD-Wave > TLH > FLAC
GRATEFUL DEAD
War Memorial Auditorium
Rochester NY
11-21-1978

Disc One (76:10)

01 The Promised Land
02 Take a Step Back #1
03 They Love Eachother
04 Cassidy
05 Dire Wolf
06 Take a Step Back #2 > Finiculi-Finicula
07 Me & My Uncle >
08 Big River
09 Row Jimmy
10 Minglewood Blues
11 Loser
12 Jack Straw >
13 Deal
-- set break --

Disc Two (61:44)

01 Take a Step Back #3
02 Bertha >
03 Good Lovin'
04 Stagger Lee
05 Estimated Prophet >
06 Eyes of the World >
07 Drums >

Disc Three (43:47)

01 Space >
02 Not Fade Away >
03 Black Peter >
04 Truckin'
-- encore --
05 Johnny B. Goode
-- BONUS TRACK --
06 Casey Jones (12-19-1978 encore, unknown Sbd source)

Lineage: SBD > ? > Cassettes provided by Ted Carpenter.

Transfer: Maxell XL-II's > Nakamichi BX-125 (no Dolby) >
Audiophile 2496 > Soundforge > CD-Wave > TLH > FLAC.

Notes: This 1st set tape is one or two generations "younger"
than the ShnID-30116 tape, and the 2nd set tape is new to
lossless circulation (Sept 2007). There are many gaps and
cuts, which were all filled with ShnID-11667 AUD patches:

- Promised Land, 0:00 > 0:15.
- Dire Wolf, 3:46 > 4:11.
- TASB #2, 0:00 > 0:04.
- Row Jimmy, 9:21 > 10:23.
- TASB #3 (all of it), 0:00 > 0:34
- Bertha, 0:00 > 0:08.
- Good Lovin', 5:58 > 9:31.
- Stagger Lee (all of it), 0:00 > 7:15.
- Estimated Prophet, 0:00 > 0:04.
- Drums (all of it), 0:00 > 10:18.
- Space, 0:00 > 0:43.
- Not Fade Away, 7:06 > 10:35.
- Black Peter, 0:00 > 0:50.
- Johnny B. Goode (all of it), 0:00 > 4:41.

The vocals are slightly distorted in some high-volume spots.
Second set disc break is seamless. The Casey Jones track was
included on the sbd cassette after Truckin', and was added
here as filler. Soundforge was used to correct pitch, make
fades, level adjustments, and edits. TLH was used for SBE-OK,
FLAC compression, and checksums. Transferred by Andrew F.


shntool

    length     expanded size   cdr  WAVE problems filename
     5:03.59       53588012    ---   --   ---xx   gd1978-11-21d1t01.flac
     0:37.56        6658556    ---   --   ---xx   gd1978-11-21d1t02.flac
     9:29.74      100545692    ---   --   ---xx   gd1978-11-21d1t03.flac
     7:55.50       83907644    ---   --   ---xx   gd1978-11-21d1t04.flac
     4:11.14       44309372    ---   --   ---xx   gd1978-11-21d1t05.flac
     1:29.43       15800780    ---   --   ---xx   gd1978-11-21d1t06.flac
     3:08.63       33311420    ---   --   ---xx   gd1978-11-21d1t07.flac
     6:06.69       64724732    ---   --   ---xx   gd1978-11-21d1t08.flac
    10:26.10      110449964    ---   --   ---xx   gd1978-11-21d1t09.flac
     6:15.27       66213548    ---   --   ---xx   gd1978-11-21d1t10.flac
     7:35.03       80269100    ---   --   ---xx   gd1978-11-21d1t11.flac
     6:22.53       67509500    ---   --   ---xx   gd1978-11-21d1t12.flac
     7:27.19       78895532    ---   --   ---xx   gd1978-11-21d1t13.flac
     0:34.67        6155228    ---   --   ---xx   gd1978-11-21d2t01.flac
     6:57.23       73612940    ---   --   ---xx   gd1978-11-21d2t02.flac
     9:31.12      100752668    ---   --   ---xx   gd1978-11-21d2t03.flac
     7:15.59       76872812    ---   --   ---xx   gd1978-11-21d2t04.flac
    13:28.38      142620620    ---   --   ---xx   gd1978-11-21d2t05.flac
    13:38.59      144434012    ---   --   ---xx   gd1978-11-21d2t06.flac
    10:18.21      109064636    ---   --   ---xx   gd1978-11-21d2t07.flac
     2:46.11       29308316    ---   --   ---xx   gd1978-11-21d3t01.flac
    10:35.42      112112828    ---   --   ---xx   gd1978-11-21d3t02.flac
    11:10.01      118190396    ---   --   ---xx   gd1978-11-21d3t03.flac
     8:27.35       89517164    ---   --   ---xx   gd1978-11-21d3t04.flac
     4:41.25       49627244    ---   --   ---xx   gd1978-11-21d3t05.flac
     6:07.12       64767068    ---   --   ---xx   gd1978-11-21d3t06.flac
   181:42.45     1923219784 B                     (totals for 26 files, 0.5744 overall compression ratio)

There were no sector boundary errors.
ffp
gd1978-11-21d1t01.flac:8cf1446bc355cabd5fb05b13cdc8da3a
gd1978-11-21d1t02.flac:f20028d214dff8a8fe7872fa9020887c
gd1978-11-21d1t03.flac:d01817ee9669a4242f039312189f001d
gd1978-11-21d1t04.flac:359a89ae02d99c912496e85b7d166ae2
gd1978-11-21d1t05.flac:97860a7c84ff8af90f6d0247ebf427cd
gd1978-11-21d1t06.flac:a6d0a0b0de4091aa007e8952447bd4ea
gd1978-11-21d1t07.flac:d0cc6f14afe7f3e4f5a22dbdebe56824
gd1978-11-21d1t08.flac:679cde332d140aacffc93d00399f065a
gd1978-11-21d1t09.flac:7454b68bdb2cf77474af752ad5977184
gd1978-11-21d1t10.flac:bd7cce4de34399d68aa98601400bd8a6
gd1978-11-21d1t11.flac:e9e89974e8a80e565503ff9bd3f4e153
gd1978-11-21d1t12.flac:d8635f6f63f73cdc10989b6fa1942802
gd1978-11-21d1t13.flac:1a7e1afc73f522243b804361e8c8c0af
gd1978-11-21d2t01.flac:00475a5dfb0eaf105c6d3e5df466c9d4
gd1978-11-21d2t02.flac:9499abd07f41683857ec51ee22708644
gd1978-11-21d2t03.flac:89a0ca14021e1cc0dd88564e8dc07e52
gd1978-11-21d2t04.flac:a8a3a7b2b173590546b0ec0c57270500
gd1978-11-21d2t05.flac:4b4a4ff412c1624d6058cdd34c60dc71
gd1978-11-21d2t06.flac:830c404336e47002e56dd9cfc7419f3b
gd1978-11-21d2t07.flac:bde2fd7bd110119c350b55e45890f31d
gd1978-11-21d3t01.flac:57605da09e31f2e862c22909060f27b6
gd1978-11-21d3t02.flac:6f66cad1998e0a90cc22fe1dee33b75d
gd1978-11-21d3t03.flac:fec6f847c5a3ba91cd6d85c49c03fe34
gd1978-11-21d3t04.flac:a7ee4867d4f2095f68ed20efe1bb382c
gd1978-11-21d3t05.flac:413bd729b0da59999a3075c06cd5ab30
gd1978-11-21d3t06.flac:249d105c1aa30f67c24be0f8242cee89
bbfd69548526d5790312d5f181ba0a6f *gd1978-11-21d1t01.flac
e89b87894f098e4c2f460f282ecd7d9b *gd1978-11-21d1t02.flac
6d6080e636135c99a31184a0e79a9691 *gd1978-11-21d1t03.flac
f223369dc683d395be818c98c848773e *gd1978-11-21d1t04.flac
8bfe6e24a336ba310b99ab388df1e1c2 *gd1978-11-21d1t05.flac
1d6650affbc950ccde512e88cd4c1ebe *gd1978-11-21d1t06.flac
0fc66fed93bedab0e82ac7631b051757 *gd1978-11-21d1t07.flac
1f632609ab6d5b781c44c56d5fb29672 *gd1978-11-21d1t08.flac
ed41f8fcf8a6a4c828685c23c34a4585 *gd1978-11-21d1t09.flac
407fd8810777a2e831f054dd2f923af3 *gd1978-11-21d1t10.flac
d00f6098550023eee914ba54611b36ef *gd1978-11-21d1t11.flac
3aa0aca24ac8eff22662468e2de106ce *gd1978-11-21d1t12.flac
f90cd204b8eb6005d34229f5a8c41247 *gd1978-11-21d1t13.flac
881d32af03e35e539b1d4d2f121db2c2 *gd1978-11-21d2t01.flac
5ce514312d08d031a49799905f524ae2 *gd1978-11-21d2t02.flac
cdf972d5507b6471653ee713bdab0c6d *gd1978-11-21d2t03.flac
34caf128ced5dc436338fbd5d8160200 *gd1978-11-21d2t04.flac
7531abb62af345cb14d58b60e6af626d *gd1978-11-21d2t05.flac
85f4a03b3c21667f8bafe0638a62418b *gd1978-11-21d2t06.flac
9f31545b9e0c828426df9c0b7afb4630 *gd1978-11-21d2t07.flac
e61e0b2b8bc81e6941c61aaeb6bb2a88 *gd1978-11-21d3t01.flac
03e0f55d2f619053bfe899d4e17d6cc8 *gd1978-11-21d3t02.flac
e4280ce53f324681bd65ce87c109b16a *gd1978-11-21d3t03.flac
49d9ce6dfe0c777b36cc2ded9a677514 *gd1978-11-21d3t04.flac
a9441076f2c00daf4bc160de5bd7e5a4 *gd1978-11-21d3t05.flac
d3a24a459cd567fa3c31dabcd462fefc *gd1978-11-21d3t06.flac

Comments
Other Sources (comments)
AUD>MC>DAT>CDR; Seeded to... (0) flac16 ; Partial SBD > ? >... (3) flac16 ; Partial Set 2... (0)
Date User Comment
10/03/2007 cool_breeze If the date given in the text file is accurate in regards to the Casey Jones bonus track, it would be the first SBD source of any part of that performance.

12/19/78 - Memorial Coliseum - Jackson, MS

Since I don't have either of the AUDs from that date, I can't verify whether the Casey is from that show. The track included here is certainly of SBD quality, though.
01/10/2008 nfagdtrfb re date of Casey Jones sbd... I compared it to the Aud, and it's clearly a match for 12/19/78.
etreedb.org
For administrative requests email contact@etreedb.org
This website written by Tom H Anderson and maintained by the etreedb.org community.

Cached: Wed, 18 Sep 2019 12:38:32 EDT