Grateful Dead 06/04/78
Campus Stadium, UC Santa Barbara, Goleta, CA
Source Summary
flac16; Master audience cassettes> Open Reel (Sony 153>Tandberg 9141) > DAT (Tandberg 9141>Tascam DA-20 @ 44.1kHz)
Grateful Dead
Campus Stadium
UC Santa Barbara
Goleta, CA  
6-4-78 (June)

Master audience cassettes> Open Reel (Sony 153>Tandberg 9141) > DAT (Tandberg 9141>Tascam DA-20 @ 44.1kHz)

Disc 1 (78:10)
set 1:
01. Bertha > (7:30)
02. Good Lovin' (9:08)
03. Dire Wolf (4:29)
04. Me & My Uncle > (3:10)
05. Big River (8:00)
06. Brown Eyed Women (5:45)
07. Looks Like Rain (8:37)
08. Tennessee Jed (10:08)
09. Jack Straw (5:39)
set 2:
10. //Samson and Delilah (7:37)
11. Ship of Fools (8:01)

Disk 2 (77:11)
set 2 continued:
01. Estimated Prophet > (11:03)
02. Eyes of the World > (10:39)
03. Drums > (11:05)
04. Space * > (4:16)
05. Not Fade Away ** >
      Nobody's Fault but Mine Jam >
      Not Fade Away Reprise > (8:28)
06. Goin' Down the Road Feelin' Bad > (6:54)
07. Around & Around (8:01)
encores:
08. stage banter (:51)
09. U.S. Blues (6:21)
10. stage banter (:51)
11. Sugar Magnolia (8:39)

Notes:
- this is the source and lineage info that came with this data set.
the taper, mics, and location are unknown.
- Samson and Delilah cuts in but not much appears to be missing.
* motorcycle space
** motorcycle signals NFA



  length     expanded size   cdr  WAVE problems filename
     7:30.34       79460012    ---   --   -----   gd78-06-04d1t01.wav
     9:08.21       96716636    ---   --   -----   gd78-06-04d1t02.wav
     4:29.72       47620988    ---   --   -----   gd78-06-04d1t03.wav
     3:10.58       33652460    ---   --   -----   gd78-06-04d1t04.wav
     8:00.27       84735548    ---   --   -----   gd78-06-04d1t05.wav
     5:45.47       60968588    ---   --   -----   gd78-06-04d1t06.wav
     8:37.69       91361132    ---   --   -----   gd78-06-04d1t07.wav
    10:08.57      107385308    ---   --   -----   gd78-06-04d1t08.wav
     5:39.72       59968988    ---   --   -----   gd78-06-04d1t09.wav
     7:37.16       80652476    ---   --   -----   gd78-06-04d1t10.wav
     8:01.42       84947228    ---   --   -----   gd78-06-04d1t11.wav
    78:10.65      827469364 B                     (totals for 11 files, 1.0000 overall compression ratio)


length     expanded size   cdr  WAVE problems filename
    11:03.25      117012044    ---   --   -----   gd78-06-04d2t01.wav
    10:39.42      112818428    ---   --   -----   gd78-06-04d2t02.wav
    11:05.06      117320156    ---   --   -----   gd78-06-04d2t03.wav
     4:16.20       45205484    ---   --   -----   gd78-06-04d2t04.wav
     8:28.10       89634764    ---   --   -----   gd78-06-04d2t05.wav
     6:54.61       73173116    ---   --   -----   gd78-06-04d2t06.wav
     8:01.18       84890780    ---   --   -----   gd78-06-04d2t07.wav
     0:51.52        9118748    ---   --   -----   gd78-06-04d2t08.wav
     6:21.18       67250780    ---   --   -----   gd78-06-04d2t09.wav
     0:51.07        9012908    ---   --   -----   gd78-06-04d2t10.wav
     8:39.18       91593980    ---   --   -----   gd78-06-04d2t11.wav
    77:11.52      817031188 B                     (totals for 11 files, 1.0000 overall compression ratio)
ffp
gd78-06-04d1t01.flac:3f9fee99d371d1412e9b4bfdd94744e1
gd78-06-04d1t02.flac:91a9c95c118deacdb617faf8774f122c
gd78-06-04d1t03.flac:b385321d333f3b3257a8aea28dbaac90
gd78-06-04d1t04.flac:8eace80c844ea09fa571a88dbcb02b81
gd78-06-04d1t05.flac:f5654dbf204a8bfa3fd6abbc5b52e5a3
gd78-06-04d1t06.flac:c2e38aa7edfbd68e5c142099aab73490
gd78-06-04d1t07.flac:f4ee2f716333d9156b70208a8bbc5611
gd78-06-04d1t08.flac:b2f60dcde59cb0b92acdf435272c3a10
gd78-06-04d1t09.flac:93ff65a0471197d5f091ec96ee633e1f
gd78-06-04d1t10.flac:a0ee1729a15a3576c08129a2b6770155
gd78-06-04d1t11.flac:e2e0f9083fc5cfd34a980787f4146a1d
gd78-06-04d2t01.flac:77030076eb957635999e33b7f597a11a
gd78-06-04d2t02.flac:558fb0e62f0a72edfcbdff0146ae2d9c
gd78-06-04d2t03.flac:ae0a1c8ea6694696074351edc06e4060
gd78-06-04d2t04.flac:c82207fab5d86a5623d459c5cf610558
gd78-06-04d2t05.flac:75ad318184337f1d1587fec07cf78718
gd78-06-04d2t06.flac:f509727d6cb917cf2a84e98b6cc57c78
gd78-06-04d2t07.flac:1d99d29a004c04cb6afefd44d03a4612
gd78-06-04d2t08.flac:6db343516bb440fa989e3abfed467960
gd78-06-04d2t09.flac:6060348ce4478503afde06ee4a6d5245
gd78-06-04d2t10.flac:ff10c840c7c9a10fcc534dde79472458
gd78-06-04d2t11.flac:aff561b4b84c39472890a3cfb042d78b
99ebe2c81b4985557a14373a1c815654 *gd78-06-04d1t01.flac
584c9357a5a720a61cbe5b527dcf3dba *gd78-06-04d1t02.flac
3519a8b0d7fbc393536b0c450caae61e *gd78-06-04d1t03.flac
c7376d5337fa01640a02c7c8b6b6fe58 *gd78-06-04d1t04.flac
8d1fc1f94083e5692367b719d272d845 *gd78-06-04d1t05.flac
0ae6da2c9c66d928cdb82c9b45798503 *gd78-06-04d1t06.flac
4c04a6ab460417548a2055bf7d7febc0 *gd78-06-04d1t07.flac
b153e2890d00bf22cac903792614e951 *gd78-06-04d1t08.flac
39a34e73b9adda09faee2cd5144bb52a *gd78-06-04d1t09.flac
ed4d0cf13d39eb17fb739dc806efff0f *gd78-06-04d1t10.flac
e046e47efb20cab0ab0ecedbdeeb10c8 *gd78-06-04d1t11.flac
d755aa5b619194c5c6886541be32efde *gd78-06-04d2t01.flac
f66c7e41e04b2ad4b96a9db5dcae412e *gd78-06-04d2t02.flac
f7d9555b6859161bee371687c5ca9b68 *gd78-06-04d2t03.flac
5fb46e3724a340c06a0d144f682457c4 *gd78-06-04d2t04.flac
0d2b1054f6b4cab8e53540aba2d8d355 *gd78-06-04d2t05.flac
9299edc50bffaf378086438ad2ff989f *gd78-06-04d2t06.flac
879bd73eab3466026af02bc85bc0fc10 *gd78-06-04d2t07.flac
d412fc331551ac34a8349c78c593117f *gd78-06-04d2t08.flac
58916fec7afe9ad7bed1a20e2826aefb *gd78-06-04d2t09.flac
4e44220ec3677bb021e75b3e91a6d0fd *gd78-06-04d2t10.flac
9c282f35282ad524ce9d694cac772fef *gd78-06-04d2t11.flac

Comments
etreedb.org
For administrative requests email contact@etreedb.org
This website written by Tom H Anderson and maintained by the etreedb.org community.

Cached: Tue, 17 Sep 2019 13:24:33 EDT