Grateful Dead 01/14/78
Bakersfield Memorial Auditorium, Bakersfield, CA
Source Summary
flac16; source: aud > ??? > cdr > eac > wav > flac
Grateful Dead
Bakersfield Civic Auditorium
Bakersfield, CA
01/14/78

source: aud > ??? > cdr > eac > wav > flac


Disc One
set I

01   Jack Straw
02   Dire Wolf
03   Cassidy
04   They Love Each Other
05   Mama Tried >
06   Me And My Uncle
07   Loser
08   Looks Like Rain
09   Deal
10   Let It Grow


Disc 2
set II

01   Samson And Delilah
02   Candy//man
03   Estimated Prophet >
04   Eyes Of The World >
05   Space >
06   Not Fade Away >
07   One More Saturday Night
08   Phil's announcement regarding the arrest of their soundman


notes:

- the pitch on all tracks has been adjusted, broadly in line with the circulating soundboard
- a substantial number of small dropouts have been repaired
- quite a lot of the between song tuning/crowd is missing, I have crossfaded to smooth out these transitions
- the levels varied and I've done my best to try and even them out.  It's not perfect but it sounds a lot better
- the bottom and middle ranges have been increased
- the discs were made from a fairly high gen source, there was quite a lot of hiss present.  Some noise
   reduction has been applied.
- there are several instances of  wow and flutter
- Candyman has a cut of about 1 minute


comments:

Garcia's voice was in bad shape, he was recovering from laryngitis

The show was cut short due to the soundman, in charge of the PA, being arrested by the Bakersfield Police


Thanks to Uncle Barry for the discs.



extracted, edited and mastered
at Cheese Towers
SIRMick
October 2007


shntool output:

    length     expanded size   cdr  WAVE problems filename
     6:25.08       67932860    ---   --   ---xx   gd1978-01-14d1t01.flac
     4:24.29       46637852    ---   --   ---xx   gd1978-01-14d1t02.flac
     5:11.72       55029788    ---   --   ---xx   gd1978-01-14d1t03.flac
     7:36.14       80471372    ---   --   ---xx   gd1978-01-14d1t04.flac
     2:42.25       28635644    ---   --   ---xx   gd1978-01-14d1t05.flac
     3:36.08       38121260    ---   --   ---xx   gd1978-01-14d1t06.flac
     7:50.01       82910396    ---   --   ---xx   gd1978-01-14d1t07.flac
     7:45.39       82117772    ---   --   ---xx   gd1978-01-14d1t08.flac
     6:13.07       65813708    ---   --   ---xx   gd1978-01-14d1t09.flac
    12:31.19      132521132    ---   --   ---xx   gd1978-01-14d1t10.flac
     8:07.58       86043260    ---   --   ---xx   gd1978-01-14d2t01.flac
     7:00.15       74123324    ---   --   ---xx   gd1978-01-14d2t02.flac
    12:27.53      131895500    ---   --   ---xx   gd1978-01-14d2t03.flac
    14:42.27      155648348    ---   --   ---xx   gd1978-01-14d2t04.flac
     5:53.01       62271596    ---   --   ---xx   gd1978-01-14d2t05.flac
    14:51.39      157264172    ---   --   ---xx   gd1978-01-14d2t06.flac
     5:02.60       53413964    ---   --   ---xx   gd1978-01-14d2t07.flac
     0:43.61        7728716    ---   --   ---xx   gd1978-01-14d2t08.flac
   133:05.11     1408580664 B                     (totals for 18 files, 0.6380 overall compression ratio)
ffp
gd1978-01-14d1t01.flac:8e7450b2f8d0671991ef4c22c4c1bdc0
gd1978-01-14d1t02.flac:c8fed882eaffcd5694f66acbdd708818
gd1978-01-14d1t03.flac:14ffffb7c6daab46b8e6cec0b5b03f50
gd1978-01-14d1t04.flac:7d6175b3374921c09c6ab25bbe2efa48
gd1978-01-14d1t05.flac:20d18d3c411a1e3350823a1ddf96a09b
gd1978-01-14d1t06.flac:37ea940bf2b7bc9394b7d7813f01caf1
gd1978-01-14d1t07.flac:e03de96a34d3e5ddecab74c2f7a6fd8c
gd1978-01-14d1t08.flac:f414fa5516fa3b8d6a62a0dcf37c17f0
gd1978-01-14d1t09.flac:58dc2578663376c945d02be5efd85c8b
gd1978-01-14d1t10.flac:cbeab4d1c892edeeddb85a5b474825e6
gd1978-01-14d2t01.flac:9268eec66ed4b07ee7898f1f4c162311
gd1978-01-14d2t02.flac:76b4e9c6bb38ee58104e2cd818df0dd7
gd1978-01-14d2t03.flac:f803e3170b2b7db29a20a6fee444904b
gd1978-01-14d2t04.flac:f5dc544e6ce7fb633ff76d6125915b57
gd1978-01-14d2t05.flac:2cf4eab8e71cfbec6a2654cac852b7d3
gd1978-01-14d2t06.flac:f32db24ebca711fa92ae2146cbae71ef
gd1978-01-14d2t07.flac:2bcaa283ad9411d19c77a8186fa0d081
gd1978-01-14d2t08.flac:f89396d4242081bb3322a67413289d61
be7d855de5e5a9945ebdae9323ccf8f1 *gd1978-01-14d1t01.flac
d92172aeea6d8ca9217a8f771a33426d *gd1978-01-14d1t02.flac
63a8b791152eac961e850be951fecc4e *gd1978-01-14d1t03.flac
e02e1a57fec767e157bcf7ccd80ce44d *gd1978-01-14d1t04.flac
bec547dc4792138c872b5c0259c3b48a *gd1978-01-14d1t05.flac
51f98efcf0ecf9ff793eea0ed9b860cc *gd1978-01-14d1t06.flac
878aeffb6398b7c7b62c141b5650aa93 *gd1978-01-14d1t07.flac
27622ad10dca6d48a31cb4c50a7477ab *gd1978-01-14d1t08.flac
c1335a79e38ad2cf85b2ebc07ec3b6fe *gd1978-01-14d1t09.flac
28b81ecf53eb20887d40f2bf1cd95772 *gd1978-01-14d1t10.flac
b883b7b1fd6471ad0f07f75770be232a *gd1978-01-14d2t01.flac
e7ce38e121daff99cb7bcf77c5fbf9d3 *gd1978-01-14d2t02.flac
957884ab3901eedb878a538930dd6031 *gd1978-01-14d2t03.flac
abb449ea88f94334f9d6f9de859fe26c *gd1978-01-14d2t04.flac
39f95c193785a6488983cc5e8822806c *gd1978-01-14d2t05.flac
7045c7d4dd314f464392f71252c4d3ac *gd1978-01-14d2t06.flac
b21dc93be58005d04fbf19422c730e1b *gd1978-01-14d2t07.flac
49f03257cf70d10377bde66ba070b92b *gd1978-01-14d2t08.flac

Comments
etreedb.org
For administrative requests email contact@etreedb.org
This website written by Tom H Anderson and maintained by the etreedb.org community.

Cached: Wed, 16 Oct 2019 17:49:34 EDT