Grateful Dead 09/14/78
Gizah Sound and Light Theater, Cairo, Egypt
Source Summary
flac16; Recording Info: SBD -> Master Reel -> Cassette -> Dat (48k) Transfer Info: Dat (Sony R500) -> Samplitude Professional v9.11 -> Cool Edit Pro v2.0 -> FLAC Transfered By Charlie Miller
Grateful Dead - September 14, 1978
Sphinx Theatre - Giza, Egypt

Recording Info:
SBD -> Master Reel -> Cassette -> Dat (48k)

Transfer Info:
Dat (Sony R500) -> Samplitude Professional v9.11 -> Cool Edit Pro v2.0 -> FLAC
(3 Discs Audio / 2 Discs FLAC)

Transfered By Charlie Miller
charliemiller87@earthlink.net
November 1, 2007

Patch Info:
(FOB/1st Row) Sony ECM280 -> Cassette Master -> CD (shnid=6032) supplies:
Truckin' (3:15 - 4:13)
Around And Around (5:46 - end of song)

Notes:
-- All disc changes are seamless
-- Cool Edit Pro was used for pitch correction (thanks Joe B. Jones)

Set One:
d1t01 - Hamza el Din Set
d1t02 - Ollin Arrageed ->
d1t03 - Not Fade Away
d1t04 - Me And My Uncle
d1t05 - They Love Each Other
d1t06 - New Minglewood Blues
d1t07 - Peggy-O
d1t08 - Beat It On Down The Line
d2t01 - Deal

Set Two:
d2t02 - Sugaree
d2t03 - Samson And Delilah
d2t04 - Scarlet Begonias ->
d2t05 - Fire On The Mountain
d3t01 - Truckin' ->
d3t02 - The Other One ->
d3t03 - Drums ->
d3t04 - Space ->
d3t05 - Black Peter ->
d3t06 - Around And Around


SHNTOOL OUTPUT:
    length     expanded size   cdr  WAVE problems filename
     9:41.14      102521372    ---   --   -----   gd78-09-14d1t01.wav
    28:06.62      297556268    ---   --   -----   gd78-09-14d1t02.wav
    11:09.68      118171580    ---   --   -----   gd78-09-14d1t03.wav
     3:20.60       35421164    ---   --   -----   gd78-09-14d1t04.wav
     7:51.28       83150300    ---   --   -----   gd78-09-14d1t05.wav
     5:46.52       61156748    ---   --   -----   gd78-09-14d1t06.wav
     8:19.59       88162412    ---   --   -----   gd78-09-14d1t07.wav
     4:00.27       42399548    ---   --   -----   gd78-09-14d1t08.wav
     6:09.55       65221004    ---   --   -----   gd78-09-14d2t01.wav
    13:13.36      139969916    ---   --   -----   gd78-09-14d2t02.wav
     7:51.35       83166764    ---   --   -----   gd78-09-14d2t03.wav
    10:35.07      112030508    ---   --   -----   gd78-09-14d2t04.wav
     9:52.38      104518220    ---   --   -----   gd78-09-14d2t05.wav
     7:27.12       78879068    ---   --   -----   gd78-09-14d3t01.wav
     7:01.46       74372636    ---   --   -----   gd78-09-14d3t02.wav
    10:26.34      110506412    ---   --   -----   gd78-09-14d3t03.wav
     8:02.14       85057772    ---   --   -----   gd78-09-14d3t04.wav
    10:36.62      112336268    ---   --   -----   gd78-09-14d3t05.wav
     8:08.45       86189084    ---   --   -----   gd78-09-14d3t06.wav
   177:42.04     1880787044 B                     (totals for 19 files)
ffp
gd78-09-14d1t01.flac:8627ffa48cffe8aaf9f1a4cb5a7a2a44
gd78-09-14d1t02.flac:be9b63ab15498e8de8abb874e6eaea90
gd78-09-14d1t03.flac:25024f7375b361d1ceb4f19665c0d8dc
gd78-09-14d1t04.flac:255141ba892d5e464e02de3bf83a5b06
gd78-09-14d1t05.flac:14e431780ebcc9529f578604f111af86
gd78-09-14d1t06.flac:720460a8884f14c3f7892faaea8d2ea8
gd78-09-14d1t07.flac:acc53c354eb8fbf50c6d2d31816ddc73
gd78-09-14d1t08.flac:a82a1a3c11be0aa5c86958afc3450363
gd78-09-14d2t01.flac:018e86ea5d2b610fb8e012c7fb548c29
gd78-09-14d2t02.flac:ba49a05c19e61a11865b03bd5f2516de
gd78-09-14d2t03.flac:b59ec49346edbe57a320157861b8d325
gd78-09-14d2t04.flac:862f031be5280b1b87ad2eae7c515723
gd78-09-14d2t05.flac:d982c43d1f0ad5853cf4d5cbb1d1a6dd
gd78-09-14d3t01.flac:d07239ad8fa855e0e8fb77b55f0a25da
gd78-09-14d3t02.flac:74e4a717b4a572618a4d1fd9f18af364
gd78-09-14d3t03.flac:f4840ad3dc7b594ca71050d7e236265c
gd78-09-14d3t04.flac:8e090450813d280596190deede80e043
gd78-09-14d3t05.flac:d819d9ac16bd2676ced31012ed4dae48
gd78-09-14d3t06.flac:ae3d0992da872a405d68674821881a25
dd8181e9328bb1a8d43f506483031f1c *gd78-09-14d1t01.flac
3e0527fa051348fed30cd0a6ba52b4db *gd78-09-14d1t02.flac
1ef8d9ed0bdc825da1dd17fbda12a61c *gd78-09-14d1t03.flac
2d935cf6cf048c0e4b5ec70f4a0269d6 *gd78-09-14d1t04.flac
146f2f3f7732c3eade2dd665c5551775 *gd78-09-14d1t05.flac
7fd08839cf337f1d893294bc6be16a0d *gd78-09-14d1t06.flac
47dd883567117854683db27cbf9755a3 *gd78-09-14d1t07.flac
7c647619c1ffecdf303bd4846f3620bd *gd78-09-14d1t08.flac
ba1ad68232f5251a9ad5800a13f6149f *gd78-09-14d2t01.flac
d9c946e6c10661c9d06e30c553beab32 *gd78-09-14d2t02.flac
2f8b92244561eb34e04047d6f1732b94 *gd78-09-14d2t03.flac
64bb4f17d06012cab6fdd00ad6da6918 *gd78-09-14d2t04.flac
818f83f37455c4f0aeff7f4bf806ea04 *gd78-09-14d2t05.flac
64ee1c4dd618b45de2585b0afa728919 *gd78-09-14d3t01.flac
c8f4219531850887a362143b3d0f29ad *gd78-09-14d3t02.flac
d1def86e457960b279440c2fad07e48e *gd78-09-14d3t03.flac
92f8342e08631886ad5fcf6753514f26 *gd78-09-14d3t04.flac
1aaa17456991c9b1a73c9c62b9e9ad15 *gd78-09-14d3t05.flac
92eba0aa1f92344600b56b8e6c8d3e8b *gd78-09-14d3t06.flac

Comments
etreedb.org
For administrative requests email contact@etreedb.org
This website written by Tom H Anderson and maintained by the etreedb.org community.

Cached: Tue, 17 Sep 2019 13:25:20 EDT