Arbouretum 08/15/07
Thekla, Bristol, UK
Source # 88354
Entered by Matt Vernon
Checksums d1 , ffp
Disc Counts 2 / 2
Media Size
Date Circulated
Date Added
08/15/2007
11/10/2007
Download Text | Download Zip
Other Sources
Source Summary
Source: Neumann KM-184(DIN)> Lunatec V2> Nomad Jukebox 3
Transfer: Nomad Jukebox 3> Firewire> Cool Edit Pro(DSP)> CDWave> FLAC Frontend
Recorded and transferred by Sloan Simpson
Gimme Shelter (Tribute To Neil Young) - 8/15/07
40 Watt Club - Athens, GA

Disc One:

01) Helpless [Frank Mason]
02) Hangin' On A Limb [Solstice Sisters]
03) Love Is A Rose [Solstice Sisters]
04) The Old Laughing Lady [Kimberly Morgan]
05) Only Love Can Break Your Heart [Kimberly Morgan/Solstice Sisters]
06) Tonight's The Night [Wydelles]
07) On The Beach [Jack Logan]
08) Time Fades Away [Jack Logan]
09) For The Turnstiles [Rob Veal]
10) Albuquerque [Todd McBride]
11) Too Far Gone [Todd McBride]
12) Barstool Blues [Todd McBride]
13) When You Dance You Can Really Love [Dave Marr]

Disc Twp:

01) I Believe In You [Dave Marr]
02) Out On The Weekend [Wydelles]
03) Bite The Bullet [Mother Jackson]
04) Alabama [Mother Jackson]
05) Words (Between The Lines Of Age) [Mother Jackson]
06) Revolution Blues [Mother Jackson]
07) Down By The River [Jackpot City]
08) Heart Of Gold [Jackpot City]
09) The Loner [Jackpot City]
10) Look Out For My Love [William Tonks]
11) Don't Let It Bring You Down [William Tonks]
12) Everybody Knows This Is Nowhere [William Tonks]
13) E:) Southern Man [Dave Marr]


Featuring The Rustics:
Bo Bedingfield - guitar
Philip McArdle - guitar
Brandon Reynolds - bass
Clay Leverett - drums
Neil Golden - keyboard

and

Michael Gibson - guitar
Mike Mills - bass
John Neff - guitar
Jon Mills - bass
Todd Nance - drums

Source: Neumann KM-184(DIN)> Lunatec V2> Nomad Jukebox 3
Transfer: Nomad Jukebox 3> Firewire> Cool Edit Pro(DSP)> CDWave> FLAC Frontend

Recorded and transferred by Sloan Simpson

Microsoft Windows XP [Version 5.1.2600]
(C) Copyright 1985-2001 Microsoft Corp.

C:\Documents and Settings\Owner>cd my*\wo*\gimme*

C:\Documents and Settings\Owner\My Documents\Working Files\gimmeshelter2007-08-1
5.flac16>shntool len *.flac
    length     expanded size   cdr  WAVE problems filename
     5:17.65       56071724    ---   --   ---xx   gimmeshelter2007-08-15d1t01.fl
ac
     4:55.44       52141532    ---   --   ---xx   gimmeshelter2007-08-15d1t02.fl
ac
     3:24.04       35995052    ---   --   ---xx   gimmeshelter2007-08-15d1t03.fl
ac
     4:22.68       46376780    ---   --   ---xx   gimmeshelter2007-08-15d1t04.fl
ac
     4:26.62       47068268    ---   --   ---xx   gimmeshelter2007-08-15d1t05.fl
ac
     4:48.55       50932604    ---   --   ---xx   gimmeshelter2007-08-15d1t06.fl
ac
     6:20.30       67102604    ---   --   ---xx   gimmeshelter2007-08-15d1t07.fl
ac
     6:50.04       72333452    ---   --   ---xx   gimmeshelter2007-08-15d1t08.fl
ac
     4:22.03       46223900    ---   --   ---xx   gimmeshelter2007-08-15d1t09.fl
ac
     4:57.04       52400252    ---   --   ---xx   gimmeshelter2007-08-15d1t10.fl
ac
     3:54.40       41371724    ---   --   ---xx   gimmeshelter2007-08-15d1t11.fl
ac
     5:13.08       55232060    ---   --   ---xx   gimmeshelter2007-08-15d1t12.fl
ac
     3:46.45       39972284    ---   --   ---xx   gimmeshelter2007-08-15d1t13.fl
ac
     4:17.59       45473612    ---   --   ---xx   gimmeshelter2007-08-15d2t01.fl
ac
     5:22.74       56974892    ---   --   ---xx   gimmeshelter2007-08-15d2t02.fl
ac
     3:36.24       38158892    ---   --   ---xx   gimmeshelter2007-08-15d2t03.fl
ac
     3:56.13       41661020    ---   --   ---xx   gimmeshelter2007-08-15d2t04.fl
ac
     8:04.58       85514060    ---   --   ---xx   gimmeshelter2007-08-15d2t05.fl
ac
     7:50.52       83030348    ---   --   ---xx   gimmeshelter2007-08-15d2t06.fl
ac
     5:58.40       63245324    ---   --   ---xx   gimmeshelter2007-08-15d2t07.fl
ac
     3:55.06       41468156    ---   --   ---xx   gimmeshelter2007-08-15d2t08.fl
ac
     8:27.50       89552444    ---   --   ---xx   gimmeshelter2007-08-15d2t09.fl
ac
     5:23.18       57019580    ---   --   ---xx   gimmeshelter2007-08-15d2t10.fl
ac
     3:56.62       41776268    ---   --   ---xx   gimmeshelter2007-08-15d2t11.fl
ac
     4:18.11       45537116    ---   --   ---xx   gimmeshelter2007-08-15d2t12.fl
ac
     6:56.69       73544732    ---   --   ---xx   gimmeshelter2007-08-15d2t13.fl
ac
   134:44.68     1426178680 B                     (totals for 26 files, 0.5951 o
verall compression ratio)


d1
b60d31b1e73ce2c1e73fab3edc8b4956 *gimmeshelter2007-08-15d1t01.flac
ffe43dac7c54d0d062e416da107a48d3 *gimmeshelter2007-08-15d1t02.flac
5806fd15ecbd22d0c4548bf4270085eb *gimmeshelter2007-08-15d1t03.flac
4e31be1e03d2a734c1149bedef5ace95 *gimmeshelter2007-08-15d1t04.flac
25c3694ef8c7af0b0df58768830d3e7d *gimmeshelter2007-08-15d1t05.flac
9abb7dca40ea43144f1614c019035bcc *gimmeshelter2007-08-15d1t06.flac
83eb77c9580a85b134b66163e7033498 *gimmeshelter2007-08-15d1t07.flac
e594973e7da7cfb1d7876f7aafbf65d6 *gimmeshelter2007-08-15d1t08.flac
13f59adfb7e9bcf775788bb1ec4a57c7 *gimmeshelter2007-08-15d1t09.flac
f7f852dd19cbd42694f4a94c9ec6f231 *gimmeshelter2007-08-15d1t10.flac
c4e19b020252480f96249b2fa6d1c81a *gimmeshelter2007-08-15d1t11.flac
fcc1d962b65dabd5ca23ede8dc0301e4 *gimmeshelter2007-08-15d1t12.flac
986db930c84a74a5cf17bcf3ef2cda24 *gimmeshelter2007-08-15d1t13.flac
bfb4f9df3438b9600ddc9d359f8a188d *gimmeshelter2007-08-15d2t01.flac
5d6186ff216ae5364ae0a855b805753a *gimmeshelter2007-08-15d2t02.flac
cb3e2d12c297401aa74149ee1a42f1b6 *gimmeshelter2007-08-15d2t03.flac
182497b0a00ce89438c5a83392dbdabc *gimmeshelter2007-08-15d2t04.flac
8cd09f7de89e842755ac8a793973d3ae *gimmeshelter2007-08-15d2t05.flac
e42d2668d91d2600fcf9774cd7071b06 *gimmeshelter2007-08-15d2t06.flac
5c42d5d745cc7bf78e2fbb0a6dae22c8 *gimmeshelter2007-08-15d2t07.flac
81296abf849003465c49171cb56292ef *gimmeshelter2007-08-15d2t08.flac
34c6ffe4c7f34d8e9d390b139ff345b7 *gimmeshelter2007-08-15d2t09.flac
6fd334fbbdb3f870e8f621a7ddb2bf90 *gimmeshelter2007-08-15d2t10.flac
5aaa2375495df10f482411cfaf4b6f7a *gimmeshelter2007-08-15d2t11.flac
e2395d330e4f212cb4e7aababa24f6b3 *gimmeshelter2007-08-15d2t12.flac
8d0752db4a196dd54c4b47cb2d668a8c *gimmeshelter2007-08-15d2t13.flac
ffp

gimmeshelter2007-08-15d1t08.flac:ef298f86dd33664b4a4e2d6c9d7bca1b
gimmeshelter2007-08-15d1t09.flac:b0d02501ae1b7e57bb00417acd5cccc0
gimmeshelter2007-08-15d1t10.flac:6adf34f16045a7369a0c8d8990681005
gimmeshelter2007-08-15d1t11.flac:7317868e482af2f9dfe58d47d4ee6145
gimmeshelter2007-08-15d1t12.flac:e99941de24b69ac9283b3018b17de47b
gimmeshelter2007-08-15d1t13.flac:77da8d09527ffee574721f10d07d4c5a
gimmeshelter2007-08-15d2t01.flac:d6ce680379d8d384502c5351f4ca37bb
gimmeshelter2007-08-15d2t02.flac:6a50c1edc407434d2a02007510922d85
gimmeshelter2007-08-15d2t03.flac:ae4d264823bd94c196b830b21bb0bc01
gimmeshelter2007-08-15d2t04.flac:7b9fdaeee3407b19b8076b356c78ff16
gimmeshelter2007-08-15d2t05.flac:b2abcbde2fc281af2f3f92653ede1dc7
gimmeshelter2007-08-15d2t06.flac:130ae5dbc19b097b37b2de5220e46364
gimmeshelter2007-08-15d2t07.flac:8c1615fff45bd56e798a973ab6963815
gimmeshelter2007-08-15d2t08.flac:525cca15b8b24415fbd2e26fabb00e39
gimmeshelter2007-08-15d2t09.flac:666c63c144f224840816a7285304099f
gimmeshelter2007-08-15d2t10.flac:58b35f060758a5b9e20dc76cbc606ffd
gimmeshelter2007-08-15d2t11.flac:df9b11b151c61bfb76300d0f58d2718e
gimmeshelter2007-08-15d2t12.flac:58d11e4d7a787a4bdd53f5308e9da55d
gimmeshelter2007-08-15d2t13.flac:c71bb31fc04e243ec287fe3dfeb4a1ff
gimmeshelter2007-08-15d1t01.flac:c25955bd3df619bbe1fdb00e4a4a31db
gimmeshelter2007-08-15d1t02.flac:b8ccc1d0ec06ccd7cace61d3a9481edd
gimmeshelter2007-08-15d1t03.flac:6611311b471605a2894a1f1bd5fa6bb3

gimmeshelter2007-08-15d1t04.flac:ca2bfb70c06bd75b71e7fd051b82e4eb
gimmeshelter2007-08-15d1t05.flac:cc9496a30f43229a95c0ed3efca78fec
gimmeshelter2007-08-15d1t06.flac:02f76b549d54108504aa9d02322e5f85
gimmeshelter2007-08-15d1t07.flac:48b309ab1869d51d1c4cfee81ee3c4e8

Comments
Date User Comment
etreedb.org
For administrative requests email contact@etreedb.org
This website written by Tom H Anderson and maintained by the etreedb.org community.

Cached: Sat, 4 Dec 2021 03:24:52 EST