Grateful Dead 09/15/78
Gizah Sound and Light Theater, Cairo, Egypt
Source Summary
flac16; Matrix 2 Source Mix - SBD (shn id 87782) Recording Info: Set One: SBD -> Master Reel -> Cassette -> Dat (48k) Set Two: SBD -> Master Reel -> PCM -> Dat (44.1k) Transfer Info: Dat (Sony R500) -> Samplitude Professional v9.11 -> FLAC + AUD (shn id 4160) Aud FOB, front row LFC, Sony ECM280 > Sony TC-153 cassette recorder; Transfer: Master FOB Cassettes > Yamaha KXW9527 > Apogee AD1000 > Delta DiO 2496 > Samplitude 2496 > CDWAV > SHNv3 - matrix mixing by Kevin Tobin
Grateful Dead
Sphinx Theatre
Giza, Egypt
September 15, 1978

SBD + AUD Matrix 2 Source Mix (60%-SBD/40%-AUD)

Set One:
d1t01 - Introduction
d1t02 - Hamza el Din set
d1t03 - Ollin Arrageed ->
d1t04 - Promised Land
d1t05 - Friend Of The Devil
d1t06 - Mama Tried ->
d1t07 - Big River
d1t08 - Loser
d1t09 - I Need A Miracle
d2t01 - Stagger Lee

Set Two:
d2t02 - Jack Straw
d2t03 - Ship Of Fools
d2t04 - Estimated Prophet ->
d2t05 - Eyes Of The World ->
d2t06 - Drums ->
d3t01 - Drums (with friends)->
d3t02 - Space ->
d3t03 - Terrapin Station ->
d3t04 - Sugar Magnolia

Audio Source Information
SBD (shnid=87782)
Recording Info:
Set One: SBD -> Master Reel -> Cassette -> Dat (48k)
Set Two: SBD -> Master Reel -> PCM -> Dat (44.1k)

Transfer Info:
Dat (Sony R500) -> Samplitude Professional v9.11 -> FLAC
(3 Discs Audio / 2 Discs FLAC)

All Transfers and Mastering By Charlie Miller
charliemiller87@earthlink.net
October 20, 2007

Patch Info:
(FOB/1st Row) Sony ECM280 -> Cassette Master -> CD (shnid=4160) supplies:
Drums (4:01 - 10:41)

Notes:
-- Mastered on 10 inch reels recorded at 15ips 1/2 track

AUD (shnid=4160)
Source:  Aud FOB, front row LFC, Sony ECM280 > Sony TC-153 cassette recorder
Transfer:  Master FOB Cassettes > Yamaha KXW9527 > Apogee AD1000 > Delta DiO 2496 > Samplitude 2496 > CDWAV > SHNv3
Transferred and seeded by John jcdauria@biology.lsa.umich.edu http://sativa.etree.org
Special thanks to "The Face" and friends who taped the show in '78(~);-}

Note:  The mics were hidden behind a cotton headpiece for most of the show.  Levels may be muffled in certain
places, and are not an artifact of the transfer.  This is a real gem with the

* Hamza El-Din
$ Jackstraw source is not from the FOB source, its from a taper further back, unknown mics
%The right channel dropped out on the masters, and the source becomes mono for the last 3 minutes before the flip
---------------------------------------------------------

Multitrack Mixdown Settings

SET ONE

Stereo Matrix
SBD 0
AUD -1.5

SET TWO

Stereo Matrix
SBD 0
AUD -1.5
---------------------------------------------------------
Audio Patches:

1) Before Ollin Arrageed, 23 minute and 52.960 seconds were missing from the audience source and was filled in with audio from the soundboard source. This portion of the audio was normalized to blend in better.

2) Between Friend of the Devil and Mama Tried, 13.538 seconds were missing from the audience source and was filled in with audio from the soundboard source. This portion of the audio was normalized to blend in better.

3) Both Mama Tried and Big River were from another audience source but included as part of shnid 4160. There is a distinctly different sound than the FOB source.

4) Between Big River and Loser, 14.219 seconds were missing from the audience source and was filled in with audio from the soundboard source. This portion of the audio was normalized to blend in better.

5) Also between Big River and Loser, 47.212 seconds were missing from the soundboard source and was filled in with audio from the audience source. This portion of the audio was normalized to blend in better.

6) Between Loser and Stagger Lee, 1 minute and 26.015 seconds were missing from the soundboard source and was filled in with audio from the audience source. This portion of the audio was normalized to blend in better. This ended disk 1.

7) Jack Straw was from another audience source but included as part of shnid 4160. There is a distinctly different sound than the FOB source. As the sbd had almost no vocals, I did the best I could to mix them in with the not quite as good audience.

8) Between Jack Straw and Ship Of Fools, 21.620 seconds were missing from the audience source and was filled in with audio from the soundboard source. This portion of the audio was normalized to blend in better.

9) At the beginning of Space, 12.552 seconds were missing from the audience source and was filled in with audio from the soundboard source. This portion of the audio was normalized to blend in better.

Set 1 of the Audience ran about 2% fast compared to the Soundboard (2 seconds fast per minute). Set 2 was much closer at 0.3%.

Brokedown House Production

    length     expanded size   cdr  WAVE problems filename
     1:31.14       16085372    ---   --   -----   gd1978-09-15d1t01.wav
    14:12.31      150365756    ---   --   -----   gd1978-09-15d1t02.wav
    17:52.67      189258428    ---   --   -----   gd1978-09-15d1t03.wav
     5:05.01       53804396    ---   --   -----   gd1978-09-15d1t04.wav
     9:20.06       98798156    ---   --   -----   gd1978-09-15d1t05.wav
     2:40.58       28360460    ---   --   -----   gd1978-09-15d1t06.wav
     7:58.73       84490940    ---   --   -----   gd1978-09-15d1t07.wav
     9:33.04      101086652    ---   --   -----   gd1978-09-15d1t08.wav
     7:47.60       82519964    ---   --   -----   gd1978-09-15d1t09.wav
     6:52.28       72742700    ---   --   -----   gd1978-09-15d2t01.wav
     8:35.24       90902492    ---   --   -----   gd1978-09-15d2t02.wav
     9:19.30       98678204    ---   --   -----   gd1978-09-15d2t03.wav
    11:56.27      126365948    ---   --   -----   gd1978-09-15d2t04.wav
    13:15.31      140310956    ---   --   -----   gd1978-09-15d2t05.wav
     3:59.51       42279596    ---   --   -----   gd1978-09-15d2t06.wav
     9:00.17       95296028    ---   --   -----   gd1978-09-15d3t01.wav
     4:47.21       50676236    ---   --   -----   gd1978-09-15d3t02.wav
    11:21.31      120201356    ---   --   -----   gd1978-09-15d3t03.wav
    10:35.17      112054028    ---   --   -----   gd1978-09-15d3t04.wav
   165:44.66     1754277668 B                     (totals for 19 files, 1.0000 overall compression ratio)
ffp
gd1978-09-15d1t01.flac:32a96bc6516656febbdbd799c76878df
gd1978-09-15d1t02.flac:cc9a3b481dcee59779061f8a17ee4b46
gd1978-09-15d1t03.flac:a56bd85ce2690e085258ee4a5fe8ef4d
gd1978-09-15d1t04.flac:e16a3f41b8933096a189322d27fa4892
gd1978-09-15d1t05.flac:44183d8443aa0e9593954049ed7bc7be
gd1978-09-15d1t06.flac:9609878b6661a1952de4090e4b05b8ad
gd1978-09-15d1t07.flac:9217270a100b1113e026c9c49d6e808c
gd1978-09-15d1t08.flac:e97600aca36cae6ba107429a76686dd8
gd1978-09-15d1t09.flac:0f6fb9cde5b3b505669881838af2574a
gd1978-09-15d2t01.flac:e1b07e524bbfe11817c9d6d2faaa4936
gd1978-09-15d2t02.flac:3f2ed128d78036f551e955288e32c72b
gd1978-09-15d2t03.flac:4647c6b07f49b4fa1315f9b5042c5ba9
gd1978-09-15d2t04.flac:7c360c7c640bc717f35e465f132bb901
gd1978-09-15d2t05.flac:26e3f84a05bc98c7db47e9dbb9731772
gd1978-09-15d2t06.flac:596c0f795b43039dfb2df42bab03c4da
gd1978-09-15d3t01.flac:810533c7ca0d8218356cea9f5dc92b9c
gd1978-09-15d3t02.flac:8bf4b5c70dfebbc61be3bae631615579
gd1978-09-15d3t03.flac:cae1c932996b677611f2053b04163dc5
gd1978-09-15d3t04.flac:cc73ae6f38c5030a5306e40fbea71ba3
66f4b636e373b039defaa25fd525fa98 *gd1978-09-15d1t01.flac
3163dd5b2583de96751883e8e234a542 *gd1978-09-15d1t02.flac
69f76f7ead9496c347ee0f8e7adaefea *gd1978-09-15d1t03.flac
fa4c8516446006269e4a0a8874907483 *gd1978-09-15d1t04.flac
535a8ca151aac958f634f767f424b0f9 *gd1978-09-15d1t05.flac
48177d41dc273c41dc5302c483c007d6 *gd1978-09-15d1t06.flac
7dc2924e71f1afe8576667ae388c9bf0 *gd1978-09-15d1t07.flac
6220212b601ec6161fafb80ceb873a0b *gd1978-09-15d1t08.flac
5d169e7c6432eae4f79bb71fa9569dc8 *gd1978-09-15d1t09.flac
68f556b624391f936e619fb05cfd42bb *gd1978-09-15d2t01.flac
4fcfa506f70db028182b1997d9b0945d *gd1978-09-15d2t02.flac
346394859ed86d066f120b1baebef3cf *gd1978-09-15d2t03.flac
4bed406a49811a2e01644fff44b5d912 *gd1978-09-15d2t04.flac
c5449ab0edfd682a799ce65681d7e6d9 *gd1978-09-15d2t05.flac
444bafda749bb3d3a266e6ea498b5f35 *gd1978-09-15d2t06.flac
270085694dbba6a169cae38b08e11fba *gd1978-09-15d3t01.flac
622451ffb8686273e520aa9b1617500f *gd1978-09-15d3t02.flac
867a1ac0e4a27d12d5a2719e9b195aeb *gd1978-09-15d3t03.flac
0f3f4e336be3f0b7386dc5bf6844094b *gd1978-09-15d3t04.flac

Comments
etreedb.org
For administrative requests email contact@etreedb.org
This website written by Tom H Anderson and maintained by the etreedb.org community.

Cached: Tue, 17 Sep 2019 13:21:27 EDT