Grateful Dead 10/17/78
Winterland Arena, San Francisco, CA
Source Summary
flac16; Recording Info: SBD -> Master Reel -> Reel -> Dat (44.1k) Transfer Info: Dat (Sony R500) -> Sound Devices 744T -> Samplitude Professional v9.12 -> FLAC All Transfers and Mastering By Charlie Miller
Grateful Dead - October 17, 1978
Winterland Arena - San Francisco, CA

Recording Info:
SBD -> Master Reel -> Reel -> Dat (44.1k)

Transfer Info:
Dat (Sony R500) -> Sound Devices 744T -> Samplitude Professional v9.12 -> FLAC
(2 Discs Audio / 2 Discs FLAC)

All Transfers and Mastering By Charlie Miller
charliemiller87@earthlink.net
December 27, 2007

Patch Info:
Unknown Mics -> Cassette Master -> Reel -> Reel -> MiniMe -> CD supplies:
Eyes Of The World (8:59 - 11:00)
U.S. Blues (4:44 - end of song)

Notes:
-- Disc change is seamless
-- Many flaws cleaned up
-- Dat was labled SBD -> Master Reel -> PCM -> Dat which is wrong
-- Patch material supplied by Pat Lee and transferred by Matt Smith

Set 1:
d1t01 - Tuning
d1t02 - The Promised Land
d1t03 - Friend Of The Devil
d1t04 - Mama Tried ->
d1t05 - Mexicali Blues
d1t06 - Tennessee Jed
d1t07 - I Need A Miracle
d1t08 - Stagger Lee
d1t09 - Jack Straw

Set 2:
d1t10 - Tuning
d1t11 - Scarlet Begonias ->
d1t12 - Fire On The Mountain
d2t01 - Tuning
d2t02 - Estimated Prophet ->
d2t03 - Eyes Of The World ->
d2t04 - Drums ->
d2t05 - Space ->
d2t06 - If I Had The World To Give ->
d2t07 - Around And Around

Encore:
d2t08 - U.S. Blues


SHNTOOL OUTPUT:
    length     expanded size   cdr  WAVE problems filename
     1:55.21       20335436    ---   --   -----   gd78-10-17d1t01.wav
     6:25.47       68024588    ---   --   -----   gd78-10-17d1t02.wav
    10:41.20      113119484    ---   --   -----   gd78-10-17d1t03.wav
     2:33.16       27026876    ---   --   -----   gd78-10-17d1t04.wav
     4:05.68       43377980    ---   --   -----   gd78-10-17d1t05.wav
     8:57.63       94875020    ---   --   -----   gd78-10-17d1t06.wav
     6:48.37       72058268    ---   --   -----   gd78-10-17d1t07.wav
     9:05.50       96255644    ---   --   -----   gd78-10-17d1t08.wav
     6:37.43       70131980    ---   --   -----   gd78-10-17d1t09.wav
     1:42.07       18009308    ---   --   -----   gd78-10-17d1t10.wav
     9:34.12      101281868    ---   --   -----   gd78-10-17d1t11.wav
    11:15.17      119110028    ---   --   -----   gd78-10-17d1t12.wav
     3:40.18       38850380    ---   --   -----   gd78-10-17d2t01.wav
    11:45.13      124392620    ---   --   -----   gd78-10-17d2t02.wav
    15:35.22      164985788    ---   --   -----   gd78-10-17d2t03.wav
    10:04.70      106710284    ---   --   -----   gd78-10-17d2t04.wav
    10:34.56      111969356    ---   --   -----   gd78-10-17d2t05.wav
     7:07.29       75391052    ---   --   -----   gd78-10-17d2t06.wav
     9:45.45      103299884    ---   --   -----   gd78-10-17d2t07.wav
     5:51.06       61930556    ---   --   -----   gd78-10-17d2t08.wav
   154:06.60     1631136400 B                     (totals for 20 files)
ffp
gd78-10-17d1t01.flac:36c1ad885b9cc61a586070c14b55ac65
gd78-10-17d1t02.flac:6837707a220a9efc7df9871283c67f48
gd78-10-17d1t03.flac:7e33bea510caafbb107a0e1b94cf9ea5
gd78-10-17d1t04.flac:524e0835579b41b26aa5e21046d70e96
gd78-10-17d1t05.flac:899c20dbae5096214631a52eff5571ea
gd78-10-17d1t06.flac:69e0746da5f15b01a7ff595dc14abc5a
gd78-10-17d1t07.flac:09c5a7951ccf50de37635a5578920a1f
gd78-10-17d1t08.flac:86ed6e0a2ef56182421d1a871f0a903d
gd78-10-17d1t09.flac:15caadded4d8ec0ae44b0348fb223c51
gd78-10-17d1t10.flac:04c43b2bf07d3b6709aebb2ba378c187
gd78-10-17d1t11.flac:1dc787df0e78e9a28029d8807d4e0810
gd78-10-17d1t12.flac:497ae4c9b8c25f8df47dd7de7e393c26
gd78-10-17d2t01.flac:18a23a223f7eaa71927c9f0ce665a252
gd78-10-17d2t02.flac:f37cf4d1f8f1238098955d6986f77e84
gd78-10-17d2t03.flac:85e18b0557ddb843fe38558421cd493f
gd78-10-17d2t04.flac:c8cc3861327d3c915a214e7bf7ef11bb
gd78-10-17d2t05.flac:8fcd4bcabf5af3b53f2ab5cde66e40ea
gd78-10-17d2t06.flac:8fd8fce8caa173f796d78af3f0f0d0f1
gd78-10-17d2t07.flac:23c975e09eca258a9eab42556b4e4f9b
gd78-10-17d2t08.flac:cbcf48af9e69d75f083f554c6256c401
cf58bd43da184ebaf36459219998605c *gd78-10-17d1t01.flac
eb711eb62493e350f37cb2bf4917705a *gd78-10-17d1t02.flac
a11715f7182851aa20d8fbb57180df27 *gd78-10-17d1t03.flac
7ff6ce53a1bf2d8341beb73d8db501d3 *gd78-10-17d1t04.flac
50d156ad1e800bf5ac2d282bf92c6eeb *gd78-10-17d1t05.flac
f6bd95847c10e090f0066efc5367e9e0 *gd78-10-17d1t06.flac
2294df982f321455f84ab76731de5ace *gd78-10-17d1t07.flac
a2ce41a1bcd5a4b31f713aa1ef6c7722 *gd78-10-17d1t08.flac
270668594a223e67dc7b35ff5eb708c0 *gd78-10-17d1t09.flac
1d423b46458c525fa18aea365908627e *gd78-10-17d1t10.flac
da02db919e6f3643f4a1ab66c7a3ddf0 *gd78-10-17d1t11.flac
912d2046ccc4557be6f525a318dbdaa7 *gd78-10-17d1t12.flac
6f8fb59bf4ab1c4458b1c97a6dd1a9ef *gd78-10-17d2t01.flac
b6a8b07d5424a2dd6b2fc28921667a6e *gd78-10-17d2t02.flac
dc19e5a539592b92d4d8c86e4c91fd99 *gd78-10-17d2t03.flac
190e8565f1c9db06f62960cb3de9637d *gd78-10-17d2t04.flac
c045dd5ee4f44c1bc2272cfcee4f7019 *gd78-10-17d2t05.flac
e39b06e7d4230c7d05a3a4739ea8ce39 *gd78-10-17d2t06.flac
896f43cb856b748289b0d88dba0ddf9d *gd78-10-17d2t07.flac
71f1a8404a7c0024e8b2a0e90565e64b *gd78-10-17d2t08.flac

Comments
Other Sources (comments)
SBD: Master Reel> PCM> DAT>... (5) Source: SBD>Master... (0) SBD>Master... (0) flac16 ; Analog Audience... (0) flac24 ; Analog Audience... (0) flac16 ; Matrix: Aud 55%... (1) flac24 ; Matrix: Aud 55%... (1) flac16 ; 2 source matrix... (0) flac16 ; Source:... (0)
Date User Comment
12/30/2007 charlie miller The audience patch was recorded by Reinhart Holwein of Sacramento on a Sony 158 cassette deck.
etreedb.org
For administrative requests email contact@etreedb.org
This website written by Tom H Anderson and maintained by the etreedb.org community.

Cached: Fri, 23 Oct 2020 05:12:09 EDT