Grateful Dead 10/18/78
Winterland Arena, San Francisco, CA
Source Summary
flac16; Recording Info: SBD -> Master Reel -> PCM -> Dat (44.1k) Transfer Info: Dat (Sony R500) -> Sound Devices 744T -> Samplitude Professional v10.01 -> FLAC All Transfers and Mastering By Charlie Miller
Grateful Dead - October 18, 1978
Winterland Arena - San Francisco, CA

Recording Info:
SBD -> Master Reel -> PCM -> Dat (44.1k)

Transfer Info:
Dat (Sony R500) -> Sound Devices 744T -> Samplitude Professional v10.01
-> FLAC
(3 Discs Audio / 2 Discs FLAC)

All Transfers and Mastering By Charlie Miller
charliemiller87@earthlink.net
January 2, 2008

Patch Info:
AKG D224E -> Cassette Master -> Reel -> Reel -> MiniMe -> CD supplies:
Sugaree (0:00 - 1:02)
Wharf Rat (9:01 - 9:25)

Notes:
-- Set 2 is seamless
-- Many flaws cleaned up
-- Drums/Space with Lee Oskar on harmonica
-- This source does not have cuts in PITB and I Need A Miracle
-- Patch material supplied by Pat Lee and transferred by Matt Smith
-- Patch was recorded by Reinhart Holwein on a Sony TC-158 cassette
deck

Set 1:
d1t01 - Sugaree
d1t02 - Me And My Uncle ->
d1t03 - Big River
d1t04 - Peggy-O
d1t05 - Tuning
d1t06 - Looks Like Rain
d1t07 - Stagger Lee
d1t08 - New Minglewood Blues
d1t09 - Candyman
d1t10 - The Music Never Stopped

Set 2:
d2t01 - Tuning
d2t02 - Bertha ->
d2t03 - Good Lovin'
d2t04 - From The Heart Of Me
d2t05 - Ship Of Fools
d2t06 - Samson And Delilah
d3t01 - Terrapin Station ->
d3t02 - Playing In The Band ->
d3t03 - Drums ->
d3t04 - Space ->
d3t05 - Mind Left Body Jam ->
d3t06 - Wharf Rat ->
d3t07 - Truckin'

Encore:
d3t08 - I Need A Miracle


SHNTOOL OUTPUT:
    length     expanded size   cdr  WAVE problems filename
    15:53.67      168266828    ---   --   -----   gd78-10-18d1t01.wav
     3:07.26       33047996    ---   --   -----   gd78-10-18d1t02.wav
     6:22.61       67528316    ---   --   -----   gd78-10-18d1t03.wav
     9:08.51       96787196    ---   --   -----   gd78-10-18d1t04.wav
     0:29.15        5150924    ---   --   -----   gd78-10-18d1t05.wav
     9:24.46       99597836    ---   --   -----   gd78-10-18d1t06.wav
     8:38.73       91546940    ---   --   -----   gd78-10-18d1t07.wav
     8:08.35       86165564    ---   --   -----   gd78-10-18d1t08.wav
     8:29.39       89879372    ---   --   -----   gd78-10-18d1t09.wav
     8:10.55       86565404    ---   --   -----   gd78-10-18d1t10.wav
     0:54.41        9622076    ---   --   -----   gd78-10-18d2t01.wav
     7:18.12       77291468    ---   --   -----   gd78-10-18d2t02.wav
     8:36.24       91078892    ---   --   -----   gd78-10-18d2t03.wav
     4:37.38       48952220    ---   --   -----   gd78-10-18d2t04.wav
     7:26.38       78763820    ---   --   -----   gd78-10-18d2t05.wav
     8:40.27       91791548    ---   --   -----   gd78-10-18d2t06.wav
    12:59.17      137455628    ---   --   -----   gd78-10-18d3t01.wav
    11:14.69      119055932    ---   --   -----   gd78-10-18d3t02.wav
     9:13.49       97664492    ---   --   -----   gd78-10-18d3t03.wav
     2:56.51       31166396    ---   --   -----   gd78-10-18d3t04.wav
     3:02.08       32123660    ---   --   -----   gd78-10-18d3t05.wav
    11:50.21      125293436    ---   --   -----   gd78-10-18d3t06.wav
    11:54.30      126020204    ---   --   -----   gd78-10-18d3t07.wav
     5:52.31       62165756    ---   --   -----   gd78-10-18d3t08.wav
   184:31.24     1952981904 B                     (totals for 24 files)

ffp
gd78-10-18d1t01.flac:add4aaf48cc14df09102c6ccf35e51f4
gd78-10-18d1t02.flac:0994c93d66235c5b9ba92a2eea5e8acc
gd78-10-18d1t03.flac:a475da8437eb25e880b4d9bd2274e4c8
gd78-10-18d1t04.flac:708638d54af0653e12f191dadfe00009
gd78-10-18d1t05.flac:fc0ffe14949851fd071bbadbf1bf01df
gd78-10-18d1t06.flac:79b16afa9a3f42b9f2dbefa66f10659a
gd78-10-18d1t07.flac:9655de6607a0d0c7f63259913657edc5
gd78-10-18d1t08.flac:dec5b4df8c9b193915aec9d04120c810
gd78-10-18d1t09.flac:8222d4e569ad119f4e8990439a50fcf4
gd78-10-18d1t10.flac:fa6fe67c0b32d8660aeba6e31b8f1200
gd78-10-18d2t01.flac:9539804764e4f76547bfe5bcf14fa85d
gd78-10-18d2t02.flac:02d6d0fcf1d52c06128b694984a03e72
gd78-10-18d2t03.flac:5df0389ccec3bced78571155a1656773
gd78-10-18d2t04.flac:5dc5994fba6eb4d07b62b1448c145a56
gd78-10-18d2t05.flac:5d1f7ee6ed29008048eac7b8da723ef3
gd78-10-18d2t06.flac:e99a5d035d1635c56eeb47477f136cf2
gd78-10-18d3t01.flac:b4303aab469d73a65081d040e917b797
gd78-10-18d3t02.flac:6f65cae2709d584a7792af9259f00ef6
gd78-10-18d3t03.flac:4c0ca16aba6ef5cc0e702b9f32fdc092
gd78-10-18d3t04.flac:f09a5ef7a963e03a4bb139f92ae9352e
gd78-10-18d3t05.flac:27f38fb0760b5bbac2ef97b14b41c631
gd78-10-18d3t06.flac:b03d59af775e5dfb9f1ce83b60018d31
gd78-10-18d3t07.flac:1e5eb6b4987c18eacb57c834c2a58317
gd78-10-18d3t08.flac:f5a31c09139b5343a4a3ed9bd2cef22c
74b2cbc5b7a1e498bcc18b68c5de8561 *gd78-10-18d1t01.flac
001b05f0efad21f1c2ea16f16584d04b *gd78-10-18d1t02.flac
3ea659694e6ced11e4e9a676e878d14a *gd78-10-18d1t03.flac
8af5a1177789ec2ed43f7aebe0626f80 *gd78-10-18d1t04.flac
9955354861e27ff79b61274b8d93690c *gd78-10-18d1t05.flac
0d147bb526acb179f8535066b4b97abd *gd78-10-18d1t06.flac
81cf28bea83570b2af022bfe36703fcb *gd78-10-18d1t07.flac
fc977884ad9a665a8e132464c105528c *gd78-10-18d1t08.flac
aaddb4464af44afdd06bd9fc40e3b982 *gd78-10-18d1t09.flac
21d3b99ec1e4d6f43cf6405a1e1f7348 *gd78-10-18d1t10.flac
9dc95dfc1ee80836708b23598d460503 *gd78-10-18d2t01.flac
7694e298ca7ebc4353817d26ec96c988 *gd78-10-18d2t02.flac
e816bc1af3e5fbfdcf6e9847d13bf1fc *gd78-10-18d2t03.flac
eadcea28f1ea3002b935840f68a6527d *gd78-10-18d2t04.flac
cf82777e771987119cc635323e6d7a16 *gd78-10-18d2t05.flac
cff9048a64d940cd9aef2f68772cee36 *gd78-10-18d2t06.flac
935ad668b772f105dea9f0373527a306 *gd78-10-18d3t01.flac
c8315efcbda82c95366e53a13e7fc6ea *gd78-10-18d3t02.flac
fb3d0ef3911bdf0807b53f5e9fd768b9 *gd78-10-18d3t03.flac
2d6acb24f3ecd05aa4bf93a4165e92fb *gd78-10-18d3t04.flac
80d09013e03ab287af39f3670dbcb12e *gd78-10-18d3t05.flac
7e89b57dd44da5e603ce36290f9b59a2 *gd78-10-18d3t06.flac
7959665952b0cc2694f1dc0865cead12 *gd78-10-18d3t07.flac
379dabfd793e569fdd87797c7c911b2f *gd78-10-18d3t08.flac

Comments
Other Sources (comments)
SBD > Master Reel > PCM-1 >... (0) Source: SBD>Master... (1) flac24 ; Analog Audience... (0) flac16 ; Analog Audience... (0) flac16 ; 2 source matrix... (0)
Date User Comment
01/03/2008 charlie miller I forgot to mention that there is a Mojo jam during the Mind Left Body jam.
etreedb.org
For administrative requests email contact@etreedb.org
This website written by Tom H Anderson and maintained by the etreedb.org community.

Cached: Wed, 18 Sep 2019 12:35:23 EDT