Alvin Youngblood Hart 01/17/08
The Bottling Co., Hattiesburg, MS
Source # 91013
Entered by ziko
Checksums ffp
Disc Counts 1 / 1
Media Size
Date Circulated
Date Added
01/21/08
03/25/2008
Download Text | Download Zip
Other Sources
Source Summary
Source: AKG c451eb/ck1(XY)>UA-5>H120; Location: 15' from left stack @ 8' high; Transfer: H120>USB>CDwave>FLAC; Taper: jkbyram
Alvin Youngblood Hart
2008-01-17
The Bottling Co.
Hattiesburg, MS

Source: AKG c451eb/ck1(XY)>UA-5>H120
Location: 15' from left stack @ 8' high
Transfer: H120>USB>CDwave>FLAC
Taper: jkbyram


01.
02.
03.
04.
05.
06.
07.
08.

solo/acoustic set

www.alvinyoungbloodhart.com

opened for NMA

ayh2008-01-17d1t01.flac:07adb00d6ba4a9fc9d8d1856d3d58437
ayh2008-01-17d1t02.flac:147878ad5d1b12b5ef1e09c4aab0747d
ayh2008-01-17d1t03.flac:5194ac6a7f9164c928e059963e275ddc
ayh2008-01-17d1t04.flac:2d56380ad2261ee210a5caa29852edd0
ayh2008-01-17d1t05.flac:12735ff0cacbe06a95540b4ba7b02f0b
ayh2008-01-17d1t06.flac:bf26afcaf2f53ae0973b0bd18dfccca3
ayh2008-01-17d1t07.flac:7f0e0be00f774fec48d4aef581b2629c
ayh2008-01-17d1t08.flac:8a85a615aac80e7784f5dff7dc3bf289

    length     expanded size   cdr  WAVE problems filename
     7:13.07       76397708    ---   --   -----   ayh2008-01-17d1t01.wav
     6:41.48       70849340    ---   --   -----   ayh2008-01-17d1t02.wav
     7:14.51       76677596    ---   --   -----   ayh2008-01-17d1t03.wav
     5:49.15       61598924    ---   --   -----   ayh2008-01-17d1t04.wav
     7:13.05       76393004    ---   --   -----   ayh2008-01-17d1t05.wav
     5:37.41       59543276    ---   --   -----   ayh2008-01-17d1t06.wav
     6:04.51       64329596    ---   --   -----   ayh2008-01-17d1t07.wav
     3:58.74       42157292    ---   --   -----   ayh2008-01-17d1t08.wav
    49:52.67      527946736 B                     (totals for 8 files, 1.0000 overall compression ratio)
ffp
ayh2008-01-17d1t01.flac:07adb00d6ba4a9fc9d8d1856d3d58437
ayh2008-01-17d1t02.flac:147878ad5d1b12b5ef1e09c4aab0747d
ayh2008-01-17d1t03.flac:5194ac6a7f9164c928e059963e275ddc
ayh2008-01-17d1t04.flac:2d56380ad2261ee210a5caa29852edd0
ayh2008-01-17d1t05.flac:12735ff0cacbe06a95540b4ba7b02f0b
ayh2008-01-17d1t06.flac:bf26afcaf2f53ae0973b0bd18dfccca3
ayh2008-01-17d1t07.flac:7f0e0be00f774fec48d4aef581b2629c
ayh2008-01-17d1t08.flac:8a85a615aac80e7784f5dff7dc3bf289

Comments
Date User Comment
etreedb.org
For administrative requests email contact@etreedb.org
This website written by Tom H Anderson and maintained by the etreedb.org community.

Cached: Tue, 19 Oct 2021 01:57:41 EDT