Mickey Hart 02/04/92
Unknown, Unknown, Unknown
Source # 91732
Entered by Matt Vernon
Checksums ffp
Disc Counts 1 / 1
Media Size
Date Circulated
Date Added
05/01/2008
05/01/2008
Download Text | Download Zip
Other Sources
Source Summary
source: sbd > cass (1st gen?) transfer: cass > Nakamichi BX-125E > Creative Extigy > Wavelab > wav (24/96) > flac - downsampled to 16/44.1 with Voxengo r8brain and dithered with iZotope Ozone (MBIT+)
Mickey Hart
02/04/1992

Possibly recorded at his ranch in Novato



source: sbd > cass (1st gen?)
transfer: cass > Nakamichi BX-125E > Creative Extigy > Wavelab > wav (24/96) > flac
downsampled to 16/44.1 with Voxengo r8brain and dithered with iZotope Ozone (MBIT+)

01   Corrina with Mickey Hart vocals
02   Corrina instrumental groove
03   Corrina instrumental groove


Notes:

- the first 2:44 of track 1 had problems with the levels, which I have fixed.  It also is a little muffled
   compared to the rest of the recording.


Comments:

Thanks to Jeremy Poynton for lending me his tape.  It was given to his brother by Maureen Hunter, the inlay card is signed by  Mickey.

Corrina was first played live by The Grateful Dead on February 23rd 1992.


transferred, edited and mastered
SIRMick
May 2008



shntool output:

    length     expanded size   cdr  WAVE problems filename
     7:29.41       79300076    ---   --   ---xx   hart1992-02-04t01.flac
     7:38.18       80833580    ---   --   ---xx   hart1992-02-04t02.flac
     7:36.19       80483132    ---   --   ---xx   hart1992-02-04t03.flac
    22:44.03      240616788 B                     (totals for 3 files, 0.5246 overall compression ratio)
ffp
hart1992-02-04t01.flac:737bbe50f786c5160f75d0c21dc2b1bc
hart1992-02-04t02.flac:4ad38b7d5b9f83862156ba13902416d6
hart1992-02-04t03.flac:35959619abd90ebf4c927117076a0dcc

Comments
Date User Comment
etreedb.org
For administrative requests email contact@etreedb.org
This website written by Tom H Anderson and maintained by the etreedb.org community.

Cached: Sun, 14 Jul 2024 16:59:41 EDT