Grateful Dead 07/08/78
Red Rocks Amphitheatre, Morrison, CO
Source Summary
flac16; Analog Audience Source: FOB Master Cassettes (MAC) Medium Stock Brands: MAC = 3 x Maxell UD XL II C90 Analog Lineage: Unknown Mircophones => Unknown Tape Deck [Patch] => Nakamichi 550 [Dolby Encode] >> MAC Analog Sound Preservation: MAC >> Nakamichi DR-1 => Grace Design Lunatec V3 [Pre-Only] => Korg MR-1000 >> DSF [1-bit 5.6448 MHz Stereo] >> Korg MR-1000 => Korg AudioGate >> WAV [24/96] Taped By: Timothy Knight
MOTB Release: 0068 16/44.1
Release Date: 2008-05-03
Band: Grateful Dead
Date: 1978-07-08 (Saturday)
Venue: Red Rocks Amphitheatre
Location: Morrison, CO
Analog Audience Source: FOB Master Cassettes (MAC)
Medium Stock Brands: MAC = 3 x Maxell UD XL II C90
Analog Lineage: Unknown Microphones => Unknown Tape Deck [Patch] => Nakamichi 550 [Dolby Encode] >> MAC
Analog Sound Preservation: MAC >> Nakamichi DR-1 => Grace Design Lunatec V3 [Pre-Only] => Korg MR-1000 >> DSF [1-bit 5.6448 MHz Stereo] >> Korg MR-1000 => Korg AudioGate >> WAV [24/96]
Taped By: Timothy Knight
Transfer By: Adam Egert
Mastering By: Kevin Tobin

Set 1
d1t01 - Tuning, Crowd And Bass Trouble
d1t02 - More Bass Trouble And The Poacher Story
d1t03 - Bertha >
d1t04 - Good Lovin'
d1t05 - Dire Wolf
d1t06 - El Paso
d1t07 - It Must Have Been The Roses
d1t08 - New Minglewood Blues
d1t09 - Ramble On Rose
d1t10 - Tuning And Crowd
d1t11 - The Promised Land
d1t12 - Deal

Set 2
d2t01 - Samson And Delilah
d2t02 - Ship Of Fools
d2t03 - Estimated Prophet >
d2t04 - The Other One >
d2t05 - Eyes Of The World >
d2t06 - Drums >
d3t01 - Space >
d3t02 - Wharf Rat >
d3t03 - Franklin's Tower >
d3t04 - Sugar Magnolia

Encore
d3t05 - Terrapin Station >
d3t06 - One More Saturday Night
d3t07 - Werewolves Of London

Mastering Notes
-- d2t{01,02} - Between "Samson And Delilah" and "Ship Of Fools", 42.181 seconds were missing from the audience source and was filled in with audio from the soundboard source. This includes the first 20 seconds of "Ship Of Fools".
-- d2t{02,03} - Between "Ship Of Fools" and "Estimated Prophet", 14.755 seconds were missing from the audience source and was filled in with audio from the soundboard source.
-- d2t03 - 11 minutes and 40 seconds into "Estimated Prophet", 09.855 seconds were missing from the audience source and was filled in with audio from the soundboard source.
-- d2t06 - 04 minutes and 13 seconds into "Drums", 25.765 seconds were missing from the audience source and was filled in with audio from the soundboard source.
-- d3t03 - 07 minutes and 13 seconds into "Franklin's Tower", 12.374 seconds were missing from the audience source and was filled in with audio from the soundboard source.

Notes
-- d2t02 - Opening 20 seconds of "Ship Of Fools" missing from the recording; patched with a soundboard source.

SHNTOOL OUTPUT:
    length     expanded size    cdr  WAVE problems  fmt   ratio  filename
     8:24.36       88990316 B   ---   --   ---xx   flac  0.4688  gd1978-07-08.motb.0068.d1t01.flac
     3:27.52       36637148 B   ---   --   ---xx   flac  0.5287  gd1978-07-08.motb.0068.d1t02.flac
     6:41.58       70872860 B   ---   --   ---xx   flac  0.6326  gd1978-07-08.motb.0068.d1t03.flac
     7:06.31       75219356 B   ---   --   ---xx   flac  0.6185  gd1978-07-08.motb.0068.d1t04.flac
     5:08.68       54491180 B   ---   --   ---xx   flac  0.5908  gd1978-07-08.motb.0068.d1t05.flac
     4:33.38       48246620 B   ---   --   ---xx   flac  0.6003  gd1978-07-08.motb.0068.d1t06.flac
     7:48.22       82606988 B   ---   --   ---xx   flac  0.5602  gd1978-07-08.motb.0068.d1t07.flac
     7:22.29       78037052 B   ---   --   ---xx   flac  0.5962  gd1978-07-08.motb.0068.d1t08.flac
     8:02.17       85064828 B   ---   --   ---xx   flac  0.5794  gd1978-07-08.motb.0068.d1t09.flac
     3:31.01       37222796 B   ---   --   ---xx   flac  0.4360  gd1978-07-08.motb.0068.d1t10.flac
     4:57.30       52461404 B   ---   --   ---xx   flac  0.6091  gd1978-07-08.motb.0068.d1t11.flac
     6:18.61       66822716 B   ---   --   ---xx   flac  0.6238  gd1978-07-08.motb.0068.d1t12.flac
     7:55.13       83820620 B   ---   --   ---xx   flac  0.6249  gd1978-07-08.motb.0068.d2t01.flac
     8:33.18       90535580 B   ---   --   ---xx   flac  0.5154  gd1978-07-08.motb.0068.d2t02.flac
    12:41.12      134268668 B   ---   --   ---xx   flac  0.5215  gd1978-07-08.motb.0068.d2t03.flac
     8:51.33       93746060 B   ---   --   ---xx   flac  0.5899  gd1978-07-08.motb.0068.d2t04.flac
    11:07.09      117680012 B   ---   --   ---xx   flac  0.5663  gd1978-07-08.motb.0068.d2t05.flac
     9:56.15      105169724 B   ---   --   ---xx   flac  0.5102  gd1978-07-08.motb.0068.d2t06.flac
     5:55.67       62779628 B   ---   --   ---xx   flac  0.5565  gd1978-07-08.motb.0068.d3t01.flac
     8:42.25       92139644 B   ---   --   ---xx   flac  0.5312  gd1978-07-08.motb.0068.d3t02.flac
    10:45.12      113806268 B   ---   --   ---xx   flac  0.5741  gd1978-07-08.motb.0068.d3t03.flac
    10:47.11      114156716 B   ---   --   ---xx   flac  0.5720  gd1978-07-08.motb.0068.d3t04.flac
    10:44.21      113651036 B   ---   --   ---xx   flac  0.5651  gd1978-07-08.motb.0068.d3t05.flac
     6:01.43       63781580 B   ---   --   ---xx   flac  0.5936  gd1978-07-08.motb.0068.d3t06.flac
     6:48.44       72074732 B   ---   --   ---xx   flac  0.6078  gd1978-07-08.motb.0068.d3t07.flac
   192:12.16     2034283532 B                            0.5656  (25 files)
cfp
b69a2220c5b80f7a7178c51008991d8d [shntool] composite
ffp
gd1978-07-08.motb.0068.d1t01.flac:0c01e5e0826edb0c38d39abd4ce3a5f3
gd1978-07-08.motb.0068.d1t02.flac:90207b5be41f7c0ab7c9148b48d382dc
gd1978-07-08.motb.0068.d1t03.flac:731e417adb178023d76a022e6b164c7d
gd1978-07-08.motb.0068.d1t04.flac:8f09a10c3ee27d18744f6f77638ef43f
gd1978-07-08.motb.0068.d1t05.flac:ce4e88056ab80d16fb487e3e894d2f35
gd1978-07-08.motb.0068.d1t06.flac:7e07e4a9b0c62da7777138816e5d9aed
gd1978-07-08.motb.0068.d1t07.flac:c95cec91d1feaeb4f644701dbb056ead
gd1978-07-08.motb.0068.d1t08.flac:3f3aabb80d300f075a7218b4e970f519
gd1978-07-08.motb.0068.d1t09.flac:b17e836312aca4e78f33e261e9564669
gd1978-07-08.motb.0068.d1t10.flac:8bce2e4178b74b96f6be95066c6c5d31
gd1978-07-08.motb.0068.d1t11.flac:66340d45254a10502060162341263b7f
gd1978-07-08.motb.0068.d1t12.flac:4419f46d499d91a1356083b239f78477
gd1978-07-08.motb.0068.d2t01.flac:1c49e2d589a0a6ca239e2bafc8dc9f16
gd1978-07-08.motb.0068.d2t02.flac:39f4c8bd32a9753ecf89a65bfba3703d
gd1978-07-08.motb.0068.d2t03.flac:1925e661a9d0ba2b7f42dfcd3879d1d2
gd1978-07-08.motb.0068.d2t04.flac:9141bc5fd2bbd88024693fb9ec76bbd3
gd1978-07-08.motb.0068.d2t05.flac:e585478c8f8a2ec99c9d627fbe21fa6a
gd1978-07-08.motb.0068.d2t06.flac:e8f16e281033e2f831e7685af2d96ef3
gd1978-07-08.motb.0068.d3t01.flac:bb8a8903cc430734ea5442d008d53017
gd1978-07-08.motb.0068.d3t02.flac:8cdd870523ed868cdd36287b72132309
gd1978-07-08.motb.0068.d3t03.flac:73dfffd3ad0d4eec2d9f52ff7dd95f0e
gd1978-07-08.motb.0068.d3t04.flac:7f61ce23587980e7f3abd3efdbd232c5
gd1978-07-08.motb.0068.d3t05.flac:28e949f4f1ea388eb6dd16b8f423eb51
gd1978-07-08.motb.0068.d3t06.flac:ad33bcec3b474cee2ce0c6d005bb0011
gd1978-07-08.motb.0068.d3t07.flac:6042a2dd85145f83ca98df5ad935b8ac
72c4ac07cfbbee933686beca9c0ab7eb *gd1978-07-08.motb.0068.d1t01.flac
9605c49206c2af3695eec6bd3a407dc0 *gd1978-07-08.motb.0068.d1t02.flac
fc7b544a282a8b355f9307fc2c59c742 *gd1978-07-08.motb.0068.d1t03.flac
4fbc4fa649a1f2711b4d6b78467b10a2 *gd1978-07-08.motb.0068.d1t04.flac
ebfa2b4bb1d52dfb8237d7fe22efacdd *gd1978-07-08.motb.0068.d1t05.flac
b123661f0de6e292ac067360ecfe04b9 *gd1978-07-08.motb.0068.d1t06.flac
45fe77ef4382af6b1d63395f219643ce *gd1978-07-08.motb.0068.d1t07.flac
a0e672c1dd4ccbf91cc80840652dc254 *gd1978-07-08.motb.0068.d1t08.flac
0ffcc0973acbc8017199e6a4d844cc33 *gd1978-07-08.motb.0068.d1t09.flac
781b1d2e2536073953c62c45965bd939 *gd1978-07-08.motb.0068.d1t10.flac
f4a12413db2ebdfcf83cb026f8a2fba3 *gd1978-07-08.motb.0068.d1t11.flac
f108577654b48e2b40713ecd9189d5df *gd1978-07-08.motb.0068.d1t12.flac
e6a5255f47f74871ed6e7564f2d67a4d *gd1978-07-08.motb.0068.d2t01.flac
2e5674260a8600643a9a8ca3b4d0eaf7 *gd1978-07-08.motb.0068.d2t02.flac
4b4a49e62d32f044f11b8a67d1fa0238 *gd1978-07-08.motb.0068.d2t03.flac
46e5c3a649b7f423a2bda8a41019863f *gd1978-07-08.motb.0068.d2t04.flac
9856218c2c0810d8164eaad4015cc740 *gd1978-07-08.motb.0068.d2t05.flac
d7e2bb6595ccbf2acc895790971646e4 *gd1978-07-08.motb.0068.d2t06.flac
61e1b058c0e26f8d925cd609a9e5f502 *gd1978-07-08.motb.0068.d3t01.flac
f1c4ce79e0104028e1d23b445e37d7a7 *gd1978-07-08.motb.0068.d3t02.flac
0db85d094ba530a8c8d521bb5a87a64e *gd1978-07-08.motb.0068.d3t03.flac
6bc551633cd26b0a421dc0cc65a133ff *gd1978-07-08.motb.0068.d3t04.flac
199042d9db0bad8edc3b86257168306c *gd1978-07-08.motb.0068.d3t05.flac
df839d59747a69706369c50824009768 *gd1978-07-08.motb.0068.d3t06.flac
0c8ecced6ef0c4c21312c0eb8537b460 *gd1978-07-08.motb.0068.d3t07.flac

Comments
etreedb.org
For administrative requests email contact@etreedb.org
This website written by Tom H Anderson and maintained by the etreedb.org community.

Cached: Sun, 5 Jul 2020 02:38:56 EDT