Grateful Dead 12/17/78
Fox Theater, Atlanta, GA
Source # 92528
Entered by Matt Vernon
Checksums ffp , flac-md5
Disc Counts 2 / 3
Media Size
Date Circulated
Date Added
07/01/2008
07/01/2008
Source Summary
flac16; Recording Info: Sony ECM-250 -> Cassette Master (Sony TC-158/Maxell UDXL-II90); Transfer Info: Cassette Master (Nakamichi DR-1) -> Sound Devices 744T (24bit/88.2k) -> Samplitude Professional v10.1 -> Adobe Audition v1.5 -> FLAC/16; All Transfers and Mastering By Charlie Miller
Grateful Dead - December 17, 1978
Fox Theatre - Atlanta, GA

Recording Info:
Sony ECM-250 -> Cassette Master (Sony TC-158/Maxell UDXL-II90)

Transfer Info:
Cassette Master (Nakamichi DR-1) -> Sound Devices 744T (24bit/88.2k) ->
Samplitude Professional v10.1 -> Adobe Audition v1.5 -> FLAC/16
(3 Discs Audio / 2 Discs FLAC)

All Transfers and Mastering By Charlie Miller
charliemiller87@earthlink.net
July 1, 2008

Patch Info:
Sony 54P -> Cassette Master -> Dat -> CD (shnid=9483) supplies:
Bertha (6:25 - 6:34)
Drums (0:10 - 0:27)
Shakedown Street (7:55 - end of track)
Sugar Magnolia (complete track)

Notes:
-- Set 2 is seamless
-- Recorded By Joani Walker
-- Thanks to Paul Scotton and Joani Walker for the tapes
-- Joani's batteries died during Shakedown Street
-- Thanks to Joe B. Jones for his help with the pitch correction
-- Radio Interview is a 1st Gen Cassette from Reel Master

Set 1:
d1t01 - Tuning
d1t02 - Jack Straw
d1t03 - They Love Each Other
d1t04 - Mama Tried ->
d1t05 - Mexicali Blues
d1t06 - Peggy-O
d1t07 - Passenger
d1t08 - Stagger Lee
d1t09 - New Minglewood Blues
d1t10 - Brown Eyed Women
d1t11 - The Music Never Stopped

Set 2:
d2t01 - Tuning
d2t02 - I Need A Miracle ->
d2t03 - Bertha ->
d2t04 - Good Lovin'
d2t05 - Ramble On Rose
d2t06 - From The Heart Of Me
d3t01 - Estimated Prophet ->
d3t02 - Eyes Of The World ->
d3t03 - Drums ->
d3t04 - Space ->
d3t05 - Shakedown Street ->
d3t06 - Sugar Magnolia

Encore:
d3t07 - Johnny B. Goode

Post Show Radio Interview (WRAS-FM):
d3t08 - Bob Weir


SHNTOOL OUTPUT:
    length     expanded size   cdr  WAVE problems filename
     2:23.49       25340492    ---   --   -----   gd78-12-17d1t01.wav
     6:42.38       71002220    ---   --   -----   gd78-12-17d1t02.wav
     8:30.68       90123980    ---   --   -----   gd78-12-17d1t03.wav
     2:41.30       28471004    ---   --   -----   gd78-12-17d1t04.wav
     4:11.56       44408156    ---   --   -----   gd78-12-17d1t05.wav
     8:45.01       92612396    ---   --   -----   gd78-12-17d1t06.wav
     5:03.25       53508044    ---   --   -----   gd78-12-17d1t07.wav
     7:21.43       77893580    ---   --   -----   gd78-12-17d1t08.wav
     5:36.61       59413916    ---   --   -----   gd78-12-17d1t09.wav
     5:43.71       60672236    ---   --   -----   gd78-12-17d1t10.wav
     7:53.26       83498396    ---   --   -----   gd78-12-17d1t11.wav
     1:32.45       16334684    ---   --   -----   gd78-12-17d2t01.wav
     6:15.15       66185324    ---   --   -----   gd78-12-17d2t02.wav
     6:51.72       72669788    ---   --   -----   gd78-12-17d2t03.wav
     7:02.66       74596076    ---   --   -----   gd78-12-17d2t04.wav
     8:12.15       86824124    ---   --   -----   gd78-12-17d2t05.wav
     4:46.08       50469260    ---   --   -----   gd78-12-17d2t06.wav
    12:32.34      132732812    ---   --   -----   gd78-12-17d3t01.wav
    11:37.33      123028460    ---   --   -----   gd78-12-17d3t02.wav
    15:31.18      164270780    ---   --   -----   gd78-12-17d3t03.wav
     3:11.49       33807692    ---   --   -----   gd78-12-17d3t04.wav
    11:17.02      119427548    ---   --   -----   gd78-12-17d3t05.wav
     9:51.62      104398268    ---   --   -----   gd78-12-17d3t06.wav
     4:33.04       48166652    ---   --   -----   gd78-12-17d3t07.wav
    10:11.25      107839244    ---   --   -----   gd78-12-17d3t08.wav
   178:21.16     1887695132 B                     (totals for 25 files)
ffp
gd78-12-17d1t01.flac:8abddaa27824a820553a75be3a9fb630
gd78-12-17d1t02.flac:4e5b668805767c424b009ff1732c2b81
gd78-12-17d1t03.flac:6c7f4978f85cbe092f5858ab6cc0397a
gd78-12-17d1t04.flac:c0819a46ee9d69257d058e107fb9b7df
gd78-12-17d1t05.flac:0173098e92373ed5d7be9f337bdd0c88
gd78-12-17d1t06.flac:0057fe558ae205e0e0eb7bd168aaf61e
gd78-12-17d1t07.flac:e5ee92d2f5ca55c6ffa76f87913331dc
gd78-12-17d1t08.flac:8628515da21671b1b3d9f62afa4ecf16
gd78-12-17d1t09.flac:56104c7c13ea4d5eef941c4997b060ca
gd78-12-17d1t10.flac:0c335a42fc10edb9eb4ac3a6923013e0
gd78-12-17d1t11.flac:a769342e42eb225f8b5e774952153066
gd78-12-17d2t01.flac:4693160d49a807ffcbbc2353001871a0
gd78-12-17d2t02.flac:bc83979c38c4f9dea9ed9c8d68cc4a69
gd78-12-17d2t03.flac:2faab4842c6b815e4d991910f7084447
gd78-12-17d2t04.flac:f4bb909ae0fb2d1dab162db5578fa1be
gd78-12-17d2t05.flac:38b8bd6851da0daebb023c451186b194
gd78-12-17d2t06.flac:2c841f1782c597e7f7af81228bfd2ebe
gd78-12-17d3t01.flac:b759c4cbd4ed6853b70112dd93098f48
gd78-12-17d3t02.flac:ebf4c4e10b68e3f1c803ffa9b33e8256
gd78-12-17d3t03.flac:ee88eb3922ee61dadacd8ad093569881
gd78-12-17d3t04.flac:77c845bf9e88a028e0d9908ecc6a68fb
gd78-12-17d3t05.flac:3c561c80bd2294499de7c0bfb909cb1a
gd78-12-17d3t06.flac:2858d3380cce0e2e9b6e3ec93893d332
gd78-12-17d3t07.flac:0896bc4c08a8a2d0269294462a57c40c
gd78-12-17d3t08.flac:798633a9087fa5c089166f9033a96f2a
501d3bb713e6e2ccf9e9d14a61873777 *gd78-12-17d1t01.flac
e328ff3d099fcfa747c2c35034b3014c *gd78-12-17d1t02.flac
43a925c801b4ee20f87be65701495c21 *gd78-12-17d1t03.flac
52741a9d1c0d6e31faed789242713184 *gd78-12-17d1t04.flac
4c026cbc7cbf143634e678c5f31e0962 *gd78-12-17d1t05.flac
d678a0600b367092f42473d73e7b9bcd *gd78-12-17d1t06.flac
e91d392beab1bd986f41076986f388ea *gd78-12-17d1t07.flac
906dcdd90d404f416f0ade06ea33af93 *gd78-12-17d1t08.flac
c339600cb5c75fac891de8b2e61a3574 *gd78-12-17d1t09.flac
8779fb8ede716f342df1e68f22429e96 *gd78-12-17d1t10.flac
ce598fa8151413a752b9b9c445848c24 *gd78-12-17d1t11.flac
4d5ad37fef689de17daf0d3256ae332c *gd78-12-17d2t01.flac
efd6768fbd53c9bca6f6308d2925638e *gd78-12-17d2t02.flac
182606c720a4e1bddf6b937ebfe0c921 *gd78-12-17d2t03.flac
6e1c78f137185d83d6e05a7a7ea6aaee *gd78-12-17d2t04.flac
f112d1500a50e95ee80bfe50b727354e *gd78-12-17d2t05.flac
a10b06c95f4796793a965414e2b77d3f *gd78-12-17d2t06.flac
2ad560cd4774c18d575d45b715b73454 *gd78-12-17d3t01.flac
c33d0b7e77ab6bf2689106d7b109e174 *gd78-12-17d3t02.flac
cd05096eb81ddab1f01ae8653dbd0cf1 *gd78-12-17d3t03.flac
2f29765c9ecc0aa40a2cfa241c76b737 *gd78-12-17d3t04.flac
25d809a0385573405e546da833abfed7 *gd78-12-17d3t05.flac
db783601d552371696eb40f864d2cc89 *gd78-12-17d3t06.flac
d87d897e5deef38fd6f725815c0f59bc *gd78-12-17d3t07.flac
03edcc6e62b8e47b40479ea54fd295f2 *gd78-12-17d3t08.flac

Comments
Other Sources (comments)
ACM(Sony 54P's)>DAT>CDR;... (0) SBD>MR>R>C>D>CD>EAC>SHN;... (0)
Date User Comment
etreedb.org
For administrative requests email contact@etreedb.org
This website written by Tom H Anderson and maintained by the etreedb.org community.

Cached: Sat, 19 Oct 2019 15:53:50 EDT