Grateful Dead 10/20/78
Winterland Arena, San Francisco, CA
Source Summary
flac16; Recording Info: SBD -> Cassette Master (Maxell UDXL-I) -> PCM (Analog Out) -> Sony R500 (A>D Only) -> Peak -> AIFF; Transfer Info: AIFF -> Samplitude Professional v10.1 -> FLAC; All Transfers and Mastering By Charlie Miller
Grateful Dead - October 20, 1978
Winterland Arena - San Francisco, CA

Recording Info:
SBD -> Cassette Master (Maxell UDXL-I) -> PCM (Analog Out) ->
Sony R500 (A>D Only) -> Peak -> AIFF

Transfer Info:
AIFF -> Samplitude Professional v10.1 -> FLAC
(3 Discs Audio / 2 Discs FLAC)

All Transfers and Mastering By Charlie Miller
charliemiller87@earthlink.net
July 1, 2008

Patch Info:
AKG D224E -> Cassette Master -> Reel -> Reel -> MiniMe -> CD supplies:
Drums (1:59 - 4:21)

Notes:
-- Set 2 is seamless
-- Patch material supplied by Pat Lee and transferred by Matt Smith
-- Patch was recorded by Reinhart Holwein on a Sony TC-158 cassette deck

Set 1:
d1t01 - Tuning
d1t02 - New Minglewood Blues
d1t03 - They Love Each Other
d1t04 - Cassidy
d1t05 - Dire Wolf
d1t06 - El Paso
d1t07 - Tennessee Jed
d1t08 - It's All Over Now
d1t09 - Loser
d1t10 - Lazy Lightnin' ->
d1t11 - Supplication

Set 2:
d2t01 - Tuning
d2t02 - Mississippi Half-Step Uptown Toodeloo ->
d2t03 - Franklin's Tower
d2t04 - Dancing In The Street ->
d2t05 - Drums ->
d3t01 - Space ->
d3t02 - Not Fade Away ->
d3t03 - Black Peter ->
d3t04 - Around And Around

Encore:
d3t05 - Johnny B. Goode
d3t06 - Shakedown Street


SHNTOOL OUTPUT:
    length     expanded size   cdr  WAVE problems filename
     0:49.57        8777708    ---   --   -----   gd78-10-20d1t01.wav
     5:32.00       58564844    ---   --   -----   gd78-10-20d1t02.wav
     8:16.44       87597932    ---   --   -----   gd78-10-20d1t03.wav
     6:24.23       67791740    ---   --   -----   gd78-10-20d1t04.wav
     5:21.03       56631500    ---   --   -----   gd78-10-20d1t05.wav
     5:17.10       55942364    ---   --   -----   gd78-10-20d1t06.wav
     8:59.24       95136092    ---   --   -----   gd78-10-20d1t07.wav
     8:19.67       88181228    ---   --   -----   gd78-10-20d1t08.wav
     9:04.23       96015740    ---   --   -----   gd78-10-20d1t09.wav
     3:31.28       37286300    ---   --   -----   gd78-10-20d1t10.wav
     4:45.14       50306972    ---   --   -----   gd78-10-20d1t11.wav
     2:12.39       23376572    ---   --   -----   gd78-10-20d2t01.wav
     8:59.21       95129036    ---   --   -----   gd78-10-20d2t02.wav
    13:37.72      144288188    ---   --   -----   gd78-10-20d2t03.wav
    19:44.29      208925852    ---   --   -----   gd78-10-20d2t04.wav
     9:11.05       97208204    ---   --   -----   gd78-10-20d2t05.wav
     5:33.52       58863548    ---   --   -----   gd78-10-20d3t01.wav
     7:20.34       77696012    ---   --   -----   gd78-10-20d3t02.wav
    10:45.50      113895644    ---   --   -----   gd78-10-20d3t03.wav
    10:19.43      109292780    ---   --   -----   gd78-10-20d3t04.wav
     5:31.22       58440188    ---   --   -----   gd78-10-20d3t05.wav
     7:38.13       80821820    ---   --   -----   gd78-10-20d3t06.wav
   167:14.73     1770170264 B                     (totals for 22 files)
dcb3b2a0b7dfef57c67c10ca4428e35c *gd78-10-20d1t01.flac
67cbc77423756702a1a5d07181c17bb1 *gd78-10-20d1t02.flac
892b1ba6c1f44d40c7a04df3c454c466 *gd78-10-20d1t03.flac
da4fe9b909538ae1d4a9a27e557df513 *gd78-10-20d1t04.flac
86833996b4112e8688ac3de07c18e758 *gd78-10-20d1t05.flac
599af7c1cbd6598a11e85509f2173269 *gd78-10-20d1t06.flac
ad543acdd955530479857dafddb74efe *gd78-10-20d1t07.flac
d3ae86de0838bf051d4674a66c9964ad *gd78-10-20d1t08.flac
2b507474a1e59550d40b22389cbef830 *gd78-10-20d1t09.flac
e37bc50f5d1ee27eeedfaed5f765128b *gd78-10-20d1t10.flac
1f05948f9eb34e7fcfa8390f3515d286 *gd78-10-20d1t11.flac
71221e6d99dada3b447ea3e2aa795ade *gd78-10-20d2t01.flac
792f01b9cc4e74cacdcc5d44c1e2bb40 *gd78-10-20d2t02.flac
edd28a448d5938899752cceae555c60b *gd78-10-20d2t03.flac
2d6e4dab7cb1c255fe111e4871c8e587 *gd78-10-20d2t04.flac
de28ea3aaaa3a125048e41baaa437dda *gd78-10-20d2t05.flac
854c723135aa9d42904f8499b2ed8c77 *gd78-10-20d3t01.flac
a94f06b3acb3b9c80833ed26795305d7 *gd78-10-20d3t02.flac
609bacb6bac9e87d26ca72efdfbfdead *gd78-10-20d3t03.flac
451abbe8f66118cd5661bd00a2edc593 *gd78-10-20d3t04.flac
17a6871c22a8c6797c819457f4ae257a *gd78-10-20d3t05.flac
05eb821909d131707a9e8bc96e5615a5 *gd78-10-20d3t06.flac
ffp
gd78-10-20d1t01.flac:5e062f98f558c16435edc1b7f063458e
gd78-10-20d1t02.flac:db69b0cd82037c6351994b198151ab99
gd78-10-20d1t03.flac:7e61baff2be686b477b582cb1b0a5192
gd78-10-20d1t04.flac:8d197f622a4b043d0fb28248a2d3cc32
gd78-10-20d1t05.flac:20182197856a6046e9d26ec21e642c08
gd78-10-20d1t06.flac:359bb525aee2476a866741116ed20756
gd78-10-20d1t07.flac:21d815188e2981a3654228aa479200d8
gd78-10-20d1t08.flac:ff94a87d57d21ae30f2604e96738b08f
gd78-10-20d1t09.flac:9636f32300fb16164df76b96bfeaa088
gd78-10-20d1t10.flac:8926888ba7686826e280081a2957edb6
gd78-10-20d1t11.flac:849c498c03cbfac4e4cf824af95f0e47
gd78-10-20d2t01.flac:9562a57fe717be2c09c1bf7dbfd9638c
gd78-10-20d2t02.flac:c212ef078ec8e983274dd02592defb87
gd78-10-20d2t03.flac:35fb18c06184ae14104fe710eae4f032
gd78-10-20d2t04.flac:106bd60f51b632bb995c52f5f36f4b67
gd78-10-20d2t05.flac:ba5db7d6a21f1097cb22c7982e2a6dd7
gd78-10-20d3t01.flac:d2e6a14e227f38859b20ed36cfc1c551
gd78-10-20d3t02.flac:9de5145de5e06090aca8e116418ad644
gd78-10-20d3t03.flac:143a6eb2a4d80058a81ef85cca99b545
gd78-10-20d3t04.flac:c0dc1577eab39dc9e59567cd65e416b5
gd78-10-20d3t05.flac:c9000bdd6b526ecfa00f6d42bc870fa1
gd78-10-20d3t06.flac:5913f2c0c66cd925156730423a112eab

Comments
etreedb.org
For administrative requests email contact@etreedb.org
This website written by Tom H Anderson and maintained by the etreedb.org community.

Cached: Tue, 17 Sep 2019 09:19:24 EDT