Grateful Dead 04/22/78
Nashville Municipal Auditorium, Nashville, TN
Source Summary
flac16; Recording Info:Sony ECM-250 -> Cassette Master (Sony TC-158/Maxell UDXL-II90);Transfer Info:Cassette Master (Nakamichi DR-1) -> Sound Devices 744T (24bit/96k) -> Samplitude Professional v10.1 -> Adobe Audition v1.5 -> FLAC/16; Recorded By Joani Walker; All Transfers and Mastering By Charlie Miller
Grateful Dead - April 22, 1978
Municipal Auditorium - Nashville, TN

Recording Info:
Sony ECM-250 -> Cassette Master (Sony TC-158/Maxell UDXL-II90)

Transfer Info:
Cassette Master (Nakamichi DR-1) -> Sound Devices 744T (24bit/96k) ->
Samplitude Professional v10.1 -> Adobe Audition v1.5 -> FLAC/16
(3 Discs Audio / 2 Discs FLAC)

All Transfers and Mastering By Charlie Miller
charliemiller87@earthlink.net
July 14, 2008

Notes:
-- Set 2 is seamless
-- Recorded By Joani Walker
-- Thanks to Paul Scotton and Joani Walker for the tapes
-- Thanks to Joe B. Jones for his help with the pitch correction

Set 1:
d1t01 - Bertha ->
d1t02 - Good Lovin'
d1t03 - Candyman
d1t04 - Looks Like Rain
d1t05 - Tennessee Jed
d1t06 - Jack Straw
d1t07 - Peggy-O
d1t08 - New Minglewood Blues
d1t09 - Deal

Set 2:
d2t01 - Tuning
d2t02 - Lazy Lightnin' ->
d2t03 - Supplication
d2t04 - It Must Have Been The Roses
d2t05 - Estimated Prophet ->
d2t06 - Eyes Of The World ->
d2t07 - Drums ->
d3t01 - Not Fade Away ->
d3t02 - Wharf Rat ->
d3t03 - Sugar Magnolia

Encore:
d3t04 - One More Saturday Night


SHNTOOL OUTPUT:
    length     expanded size   cdr  WAVE problems filename
     7:18.47       77373788    ---   --   -----   gd78-04-22d1t01.wav
     7:07.02       75327548    ---   --   -----   gd78-04-22d1t02.wav
     7:37.27       80678348    ---   --   -----   gd78-04-22d1t03.wav
     8:29.24       89844092    ---   --   -----   gd78-04-22d1t04.wav
     9:08.30       96737804    ---   --   -----   gd78-04-22d1t05.wav
     6:01.22       63732188    ---   --   -----   gd78-04-22d1t06.wav
     8:11.42       86711228    ---   --   -----   gd78-04-22d1t07.wav
     5:53.47       62379788    ---   --   -----   gd78-04-22d1t08.wav
     7:19.53       77564300    ---   --   -----   gd78-04-22d1t09.wav
     1:06.22       11694188    ---   --   -----   gd78-04-22d2t01.wav
     3:21.72       35625788    ---   --   -----   gd78-04-22d2t02.wav
     6:37.72       70200188    ---   --   -----   gd78-04-22d2t03.wav
     8:37.65       91351724    ---   --   -----   gd78-04-22d2t04.wav
    12:27.23      131824940    ---   --   -----   gd78-04-22d2t05.wav
    12:21.44      130815932    ---   --   -----   gd78-04-22d2t06.wav
    13:46.10      145729964    ---   --   -----   gd78-04-22d2t07.wav
    10:57.67      116052428    ---   --   -----   gd78-04-22d3t01.wav
    11:59.57      126965708    ---   --   -----   gd78-04-22d3t02.wav
    10:11.17      107820428    ---   --   -----   gd78-04-22d3t03.wav
     5:02.30       53343404    ---   --   -----   gd78-04-22d3t04.wav
   163:37.23     1731773776 B                     (totals for 20 files)
a2adc0c6b01f39f5f15421bc7cb954d0 *gd78-04-22d1t01.flac
0ce41eef8a70b403fa26ca32170f774a *gd78-04-22d1t02.flac
45af8250a0dbeb82699b0d8f458b720b *gd78-04-22d1t03.flac
60aea82b690d131197e477821cae262c *gd78-04-22d1t04.flac
e73f4542693b0854da66c053b812a42a *gd78-04-22d1t05.flac
8aaf17ad8be5e2ab3eb8d5c2ad85adc0 *gd78-04-22d1t06.flac
01d221cc50d8593db4b672827a7d3f8a *gd78-04-22d1t07.flac
080d378c9a232b888dacecf4235577c6 *gd78-04-22d1t08.flac
f1dcdd815524a7556b399e2b5c113f01 *gd78-04-22d1t09.flac
a6b0c9f81ab23aa1a9cba8f2d510db0f *gd78-04-22d2t01.flac
8df25a2529d7e4975024a5faf2f4e0f2 *gd78-04-22d2t02.flac
3803754981e4f0b523bd7c7ca2bcf1d4 *gd78-04-22d2t03.flac
a952fdbf02be5ba8e37abadac1636c88 *gd78-04-22d2t04.flac
a4b55a28924891557cc54afda8b38b28 *gd78-04-22d2t05.flac
154ccab127c7b08b30d31104bbf34bee *gd78-04-22d2t06.flac
381d96f70d2932f66ac97e232b2f3ffa *gd78-04-22d2t07.flac
76627a03cf04b11b36aa76760560d83d *gd78-04-22d3t01.flac
0bd3aad28f612660e999a7584858c342 *gd78-04-22d3t02.flac
db79d7e9f45d79084d772ca92a79cde4 *gd78-04-22d3t03.flac
7629bea55031d013d5a8957a7d1ce3f2 *gd78-04-22d3t04.flac
ffp
gd78-04-22d1t01.flac:61c0c46a809ee44738ed8d5d310f93be
gd78-04-22d1t02.flac:0dc831ed38bfbc88e3251699240b4bfc
gd78-04-22d1t03.flac:ae0aa927530d1edaeaf9dd424aca9859
gd78-04-22d1t04.flac:0f46e86862002f53d9f51e3b336b6306
gd78-04-22d1t05.flac:6517e26c4f70b6367500a6cf6411235a
gd78-04-22d1t06.flac:8513c04b09b25f71b721cbbc2e31244d
gd78-04-22d1t07.flac:d104aaa88c7a149f3412d6d619898124
gd78-04-22d1t08.flac:6e5a27a1d32e3e2b5b3be2baa95d4b9b
gd78-04-22d1t09.flac:cdbc598d905af88f2957b78b20bd9751
gd78-04-22d2t01.flac:673727c5dd9706d32a9c16eb40fc3734
gd78-04-22d2t02.flac:0cddab6e3ebd878a537600faa4a63eb7
gd78-04-22d2t03.flac:ab13d9cba223597d4ad91eb8590111d5
gd78-04-22d2t04.flac:34262fa1508867ff84222b609417813e
gd78-04-22d2t05.flac:b02716a9d4e09f19d34a3561a0a8d860
gd78-04-22d2t06.flac:25a352e68681944f5a1930b07b28f942
gd78-04-22d2t07.flac:f6d422595d143b32991db57a0b490c39
gd78-04-22d3t01.flac:950484e33f331940611952d004d2370d
gd78-04-22d3t02.flac:bd024609093e4a5def53e6ff044e11cb
gd78-04-22d3t03.flac:648cadd522d0da70d42b249b725b1a17
gd78-04-22d3t04.flac:cc4c966b345c0f46050919f575bd53ab

Comments
etreedb.org
For administrative requests email contact@etreedb.org
This website written by Tom H Anderson and maintained by the etreedb.org community.

Cached: Tue, 17 Sep 2019 13:19:53 EDT