Grateful Dead 06/04/78
Campus Stadium, UC Santa Barbara, Goleta, CA
Source Summary
flac16; Recording Info: SBD (Betty's Recording Mix) -> Master Cassette (Maxell UD C-90) -> Dat (44.1k);Transfer Info: Dat (Sony R500) -> VXPocket v2 -> Samplitude Professional v10.1 -> Adobe Audition v1.5 -> FLAC; All Transfers and Mastering By Charlie Miller
Grateful Dead - June 4, 1978
Campus Stadium - Santa Barbara, CA
University Of California

Recording Info:
SBD (Betty's Recording Mix) -> Master Cassette (Maxell UD C-90) -> Dat (44.1k)

Transfer Info:
Dat (Sony R500) -> VXPocket v2 -> Samplitude Professional v10.1 ->
Adobe Audition v1.5 -> FLAC
(2 Discs Audio / 2 Discs FLAC)

All Transfers and Mastering By Charlie Miller
charliemiller87@earthlink.net
September 6, 2008

Patch Info:
SBD (Healy's House Mix) -> Master Cassette -> Cassette -> Dat (48k) supplies:
Tennessee Jed (complete track)

Notes:
-- Disc change is seamless
-- Thanks to Rob Eaton for lending me his Dats
-- Thanks to David Gans for helping clean up some flaws
-- Thanks to Joe B. Jones for his help with the pitch correction

Set 1:
d1t01 - Bertha ->
d1t02 - Good Lovin'
d1t03 - Dire Wolf
d1t04 - Me And My Uncle ->
d1t05 - Big River
d1t06 - Brown Eyed Women
d1t07 - Looks Like Rain
d1t08 - Tennessee Jed
d1t09 - Jack Straw

Set 2:
d1t10 - Samson And Delilah
d1t11 - Ship Of Fools
d2t01 - Estimated Prophet ->
d2t02 - Eyes Of The World ->
d2t03 - Drums ->
d2t04 - Space ->
d2t05 - Not Fade Away ->
d2t06 - Goin' Down The Road Feeling Bad ->
d2t07 - Around And Around

Encore:
d2t08 - U.S. Blues
d2t09 - Sugar Magnolia


SHNTOOL OUTPUT:
    length     expanded size   cdr  WAVE problems filename
     7:12.05       76216604    ---   --   -----   gd78-06-04d1t01.wav
     7:18.26       77324396    ---   --   -----   gd78-06-04d1t02.wav
     4:24.24       46626092    ---   --   -----   gd78-06-04d1t03.wav
     3:11.39       33784172    ---   --   -----   gd78-06-04d1t04.wav
     7:37.48       80727740    ---   --   -----   gd78-06-04d1t05.wav
     6:24.46       67845836    ---   --   -----   gd78-06-04d1t06.wav
     8:03.10       85224764    ---   --   -----   gd78-06-04d1t07.wav
     9:53.19      104649932    ---   --   -----   gd78-06-04d1t08.wav
     5:55.26       62683196    ---   --   -----   gd78-06-04d1t09.wav
     9:25.57       99800108    ---   --   -----   gd78-06-04d1t10.wav
     8:40.07       91744508    ---   --   -----   gd78-06-04d1t11.wav
    11:16.50      119364044    ---   --   -----   gd78-06-04d2t01.wav
    10:45.21      113827436    ---   --   -----   gd78-06-04d2t02.wav
    10:51.72      115005788    ---   --   -----   gd78-06-04d2t03.wav
     4:15.72       45151388    ---   --   -----   gd78-06-04d2t04.wav
     8:32.43       90417980    ---   --   -----   gd78-06-04d2t05.wav
     6:56.21       73431836    ---   --   -----   gd78-06-04d2t06.wav
     8:39.50       91669244    ---   --   -----   gd78-06-04d2t07.wav
     6:49.01       72149996    ---   --   -----   gd78-06-04d2t08.wav
     9:02.08       95627660    ---   --   -----   gd78-06-04d2t09.wav
   155:15.45     1643272720 B                     (totals for 20 files)
e79b97e143bbef42bb63cd829b927b28 *gd78-06-04d1t01.flac
6c504cc7b9fb78c7f32607af97758b36 *gd78-06-04d1t02.flac
dd73e59ae44eb1c44d8a472073ca77bb *gd78-06-04d1t03.flac
8d869b67f8a231e8f630bc12e37a053d *gd78-06-04d1t04.flac
d7ac73d6507b3ac3dc6e200d8a17dbe0 *gd78-06-04d1t05.flac
9f0ec755cfbd2f1480deacf06988503d *gd78-06-04d1t06.flac
2a470fc86890316b4516185b6e085a2d *gd78-06-04d1t07.flac
ec4962dce2d59f0505c50f383a008300 *gd78-06-04d1t08.flac
cef243db55bcea2c6f0926186c3b8ddc *gd78-06-04d1t09.flac
7a3d5ace8fa00f5ef5ee0b1ed2bfca40 *gd78-06-04d1t10.flac
1a84f02c5683cb61f31292c647c84dad *gd78-06-04d1t11.flac
e0236ac8f183a41dc38e3060ea59991b *gd78-06-04d2t01.flac
687021027b35d4a7941dce17cb14f5f3 *gd78-06-04d2t02.flac
1e381ea6b147c0855b6ea962985cc576 *gd78-06-04d2t03.flac
ac9b434ab10d5a1497aa079ce3975df9 *gd78-06-04d2t04.flac
2765e2619b71f64b16815bb2053ee1fb *gd78-06-04d2t05.flac
01fd0b4447e0ee1e6a23c4d0bac4d9a3 *gd78-06-04d2t06.flac
2d7901df6f4d97f343f3162f10862523 *gd78-06-04d2t07.flac
719c2f29014ec1a7332c528824dd2cef *gd78-06-04d2t08.flac
cab6bc44468ea53cf6eb70d7f3a60061 *gd78-06-04d2t09.flac
ffp
gd78-06-04d1t01.flac:88f740ec7f3fd581b5ddc338eae6cb67
gd78-06-04d1t02.flac:1a5f891e754cd0e75d412f8dedef16d6
gd78-06-04d1t03.flac:d96fb43addeee7bae6a6581ee50d92f4
gd78-06-04d1t04.flac:25a218708a4a699f1d675b1c0eccbe52
gd78-06-04d1t05.flac:affff5f2fbefc9dfe5f9ea138c470ead
gd78-06-04d1t06.flac:7b3d398b8bb8392e303e51f6e3de8d47
gd78-06-04d1t07.flac:e168d0963b35867fd7b46fc720fa90a4
gd78-06-04d1t08.flac:b70ccc596b684ecc5e1db0cff1aa8b1e
gd78-06-04d1t09.flac:625c5586fe4e1068e8945afb41930e22
gd78-06-04d1t10.flac:652b05253b3fb0505c58dd7a31124aa5
gd78-06-04d1t11.flac:f28f485186872595dcb1867c7c413ba2
gd78-06-04d2t01.flac:3bcee07f01e9228f832f3b663d07c6bc
gd78-06-04d2t02.flac:c0d2fb53a901f8316dc5a70e58d048b4
gd78-06-04d2t03.flac:a035c7a4ccc59bf481d67d89edb17985
gd78-06-04d2t04.flac:b9763e4987a05f7242bbe2c107cf7daf
gd78-06-04d2t05.flac:4f953c1f2bcf01aa81bc47bfa0ea7052
gd78-06-04d2t06.flac:f4552b9e0a731a56fe6623fb1a12655c
gd78-06-04d2t07.flac:3ae093f90b85ab122c3d38c9c2221c33
gd78-06-04d2t08.flac:c08d6529bffd246bbd514fa974000232
gd78-06-04d2t09.flac:f6f0f12dd2ab6a4f0ef48e60b4f2e40c

Comments
etreedb.org
For administrative requests email contact@etreedb.org
This website written by Tom H Anderson and maintained by the etreedb.org community.

Cached: Tue, 17 Sep 2019 09:20:00 EDT