Grateful Dead 04/19/78
Veterans Memorial Hall, Columbus, OH
Source Summary
flac16; Recording Info: (FOB) Sony ECM-250 -> Cassette Master (Sony TC-158/Maxell UDXL-II90); Transfer Info: Cassette Master (Nakamichi DR-1) -> Sound Devices 744T (24bit/96k) -> Samplitude Professional v10.1 -> Adobe Audition v1.5 -> FLAC/16; Recorded By Joani Walker; All Transfers and Mastering By Charlie Miller
Grateful Dead - April 19, 1978
Veterans Memorial Auditorium - Columbus, OH

Recording Info:
(FOB) Sony ECM-250 -> Cassette Master (Sony TC-158/Maxell UDXL-II90)

Transfer Info:
Cassette Master (Nakamichi DR-1) -> Sound Devices 744T (24bit/96k) ->
Samplitude Professional v10.1 -> Adobe Audition v1.5 -> FLAC/16
(3 Discs Audio / 2 Discs FLAC)

All Transfers and Mastering By Charlie Miller
charliemiller87@earthlink.net
September 9, 2008

Notes:
-- Set 2 is seamless
-- Recorded By Joani Walker
-- Thanks to Paul Scotton and Joani Walker for the tapes
-- Thanks to Joe B. Jones for his help with the pitch correction
-- Tape flip at start of Around And Around

Set 1:
d1t01 - Bertha ->
d1t02 - Good Lovin'
d1t03 - Friend Of The Devil
d1t04 - Passenger
d1t05 - Candyman
d1t06 - Cassidy
d1t07 - Peggy-O
d1t08 - Me And My Uncle ->
d1t09 - Big River
d1t10 - Deal

Set 2:
d2t01 - Samson And Delilah
d2t02 - It Must Have Been The Roses
d2t03 - Estimated Prophet ->
d2t04 - He's Gone ->
d2t05 - Drums ->
d3t01 - Space ->
d3t02 - The Other One ->
d3t03 - Wharf Rat ->
d3t04 - Around And Around

Encore:
d3t05 - Werewolves Of London


SHNTOOL OUTPUT:
    length     expanded size   cdr  WAVE problems filename
     7:44.60       81990764    ---   --   -----   gd78-04-19d1t01.wav
     6:30.71       68963036    ---   --   -----   gd78-04-19d1t02.wav
     9:26.72      100011788    ---   --   -----   gd78-04-19d1t03.wav
     6:39.16       70421276    ---   --   -----   gd78-04-19d1t04.wav
     7:24.48       78434540    ---   --   -----   gd78-04-19d1t05.wav
     4:59.02       52748348    ---   --   -----   gd78-04-19d1t06.wav
     8:16.46       87602636    ---   --   -----   gd78-04-19d1t07.wav
     3:02.36       32189516    ---   --   -----   gd78-04-19d1t08.wav
     6:34.42       69600428    ---   --   -----   gd78-04-19d1t09.wav
     6:57.62       73704668    ---   --   -----   gd78-04-19d1t10.wav
     8:21.09       88397612    ---   --   -----   gd78-04-19d2t01.wav
     7:57.04       84152252    ---   --   -----   gd78-04-19d2t02.wav
    13:57.61      147790316    ---   --   -----   gd78-04-19d2t03.wav
    11:13.56      118848956    ---   --   -----   gd78-04-19d2t04.wav
    17:05.73      180981740    ---   --   -----   gd78-04-19d2t05.wav
     9:37.05      101794604    ---   --   -----   gd78-04-19d3t01.wav
     8:07.22       85958588    ---   --   -----   gd78-04-19d3t02.wav
    10:28.74      110953292    ---   --   -----   gd78-04-19d3t03.wav
     9:28.36      100279916    ---   --   -----   gd78-04-19d3t04.wav
    10:44.57      113735708    ---   --   -----   gd78-04-19d3t05.wav
   174:39.27     1848559984 B                     (totals for 20 files)
ffp
gd78-04-19d1t01.flac:df7a068b44bb0b99ac58880a3e526828
gd78-04-19d1t02.flac:ae9d105b10fd9efffb535a4317477b94
gd78-04-19d1t03.flac:dd69cd206dff6ad6e3815496219f7689
gd78-04-19d1t04.flac:56d765916d1a56eab9b558afe217dba0
gd78-04-19d1t05.flac:121b021ea687fb2b479b3d4f26905bac
gd78-04-19d1t06.flac:033ac1ba3d71533fd353e595d4973212
gd78-04-19d1t07.flac:68e3ccd6de69f3cf6cd87409b2baa56c
gd78-04-19d1t08.flac:40bf54c72cc83c1c39686ae656c13687
gd78-04-19d1t09.flac:e7b1334c8a8804e12ef9013890c3094e
gd78-04-19d1t10.flac:f83a80f115e1b0903664bc61632dbf67
gd78-04-19d2t01.flac:8a4e5adc9691b79d85456822a172c39f
gd78-04-19d2t02.flac:0ae345bd5a4b511714e8c0b6cf4c944a
gd78-04-19d2t03.flac:287179e40de5e922e168f0bee1083b41
gd78-04-19d2t04.flac:62ccb0e7d24e3568f6a3722ce9c482a1
gd78-04-19d2t05.flac:f53edc6aab328243faa3efbf5ea00026
gd78-04-19d3t01.flac:8f6e56d76f3dcadd117f5ea1307b6d12
gd78-04-19d3t02.flac:fed8ff2935a10de4a91d1d108a96c904
gd78-04-19d3t03.flac:b774d4227ba547e99be6e0400eb0bdaf
gd78-04-19d3t04.flac:d5f943c64bad2e05fd36037850c7d7c6
gd78-04-19d3t05.flac:40f9722c2fff92af7a4eb9d8978e7f97
07395d9005a88736fc42450d82f2c090 *gd78-04-19d1t01.flac
66824f845726c0152c1fd86baca60a57 *gd78-04-19d1t02.flac
2b3e81ddb14f212d53eb8cebb8575a96 *gd78-04-19d1t03.flac
faf7df13348275092a63b08be4ec14e6 *gd78-04-19d1t04.flac
d483fe48efe36a5e3e3f9dc1db6d73e0 *gd78-04-19d1t05.flac
255a6c1cb49b8318c36e805c2c0f2614 *gd78-04-19d1t06.flac
a6341bbe0a45c673f9c06b0d00881938 *gd78-04-19d1t07.flac
814cbb4fe79b88c79c796afeb60b5375 *gd78-04-19d1t08.flac
0b20509d69a6940faba1ce6e22dd05d6 *gd78-04-19d1t09.flac
c4079664e0362b69764c341b57176905 *gd78-04-19d1t10.flac
794e9346c0b2900825b10ce1aa357827 *gd78-04-19d2t01.flac
fb555ad7faff8c1bd02a6b5d83e1cf7c *gd78-04-19d2t02.flac
019859cd82c094d8617efaba6f7ad15d *gd78-04-19d2t03.flac
c85a1aee1180129d3d415ad345d36906 *gd78-04-19d2t04.flac
8e45ba4a4a3738f43d0ce57b530091a7 *gd78-04-19d2t05.flac
364d03d0d9604566ec9a7999839812d8 *gd78-04-19d3t01.flac
b437c0f99c67ac98d8fb1eeb78bcd3e9 *gd78-04-19d3t02.flac
cca6b6bb70e1c372c83f297dc6c07279 *gd78-04-19d3t03.flac
e3132ddcaaf5f0df4b6c1217e691e6f5 *gd78-04-19d3t04.flac
c9e7781032434356f3e9c9fe3b4e9dea *gd78-04-19d3t05.flac

Comments
etreedb.org
For administrative requests email contact@etreedb.org
This website written by Tom H Anderson and maintained by the etreedb.org community.

Cached: Mon, 19 Oct 2020 16:50:46 EDT