Grateful Dead 04/19/78
Veterans Memorial Hall, Columbus, OH
Source Summary
flac16; Matrix by Hunter Seamons using Final Cut Pro (SHN & FLAC>AIFF>Final Cut>WAV>FLAC)
Grateful Dead
Veterans Memorial Auditorium
Columbus, OH
April 19, 1978

Jerry Garcia - Lead Guitar, Vocals
Donna Jean Godchaux - Vocals
Keith Godchaux - Keyboards
Mickey Hart - Drums
Bill Kreutzmann - Drums
Phil Lesh - Electric Bass, Vocals
Bob Weir - Rhythm Guitar, Vocals



*Matrix*

----------------------------------------------------
SBD:

Source: SBD>Rm>CD>David Gans Sonic Solutions>CD

seed discs provided by Charlie Miller
charliemiller87@earthlink.net

----------------------------------------------------
AUD:

Recording Info:
(FOB) Sony ECM-250 -> Cassette Master (Sony TC-158/Maxell UDXL-II90)

Transfer Info:
Cassette Master (Nakamichi DR-1) -> Sound Devices 744T (24bit/96k) ->
Samplitude Professional v10.1 -> Adobe Audition v1.5 -> FLAC/16
(3 Discs Audio / 2 Discs FLAC)

All Transfers and Mastering By Charlie Miller
charliemiller87@earthlink.net
September 9, 2008

Notes:
-- Set 2 is seamless
-- Recorded By Joani Walker
-- Thanks to Joe B. Jones for his help with the pitch correction

---------------------------------------------------
Thank you to Charlie Miller and David Gans for the SBD transfer,
to Joani Walker for recording the show,
to Paul Scotton for the AUD tapes,
and to Charlie Miller for the AUD transfer.

Matrix by Hunter Seamons using Final Cut Pro (SHN & FLAC>AIFF>Final Cut>WAV>FLAC)
September 13, 2008


Set I
-----
d1t01 - Bertha ->
d1t02 - Good Lovin'
d1t03 - Friend Of The Devil
d1t04 - Passenger
d1t05 - Candyman
d1t06 - Cassidy
d1t07 - Peggy-O
d1t08 - Me And My Uncle ->
d1t09 - Big River
d1t10 - Deal

Set II
-----
d2t01 - Samson And Delilah
d2t02 - It Must Have Been The Roses
d2t03 - Estimated Prophet ->
d2t04 - He's Gone ->
d2t05 - Drums ->
d3t01 - Space ->
d3t02 - The Other One ->
d3t03 - Wharf Rat ->
d3t04 - Around And Around

Encore
-----
d3t05 - Werewolves Of London


Notes:

1) Light static in the AUD at times, more so in set 2.

2) Some cuts in the AUD and SBD between songs. Tape flip in the AUD at start of Around and Around. Cut in the SBD during Around and Around.

3) There was a cut in Drums in both the SBD and AUD around the same time. For this reason, a small portion of Drums is missing. For continuity purposes, and to keep a continuous AUD track, I followed the AUD edit, which required me to hack off 45 seconds of the SBD recording of Drums. Considering that some of Drums is already missing, I think this edit is okay.

4) Due to some weirdness in the SBD from 0:33 to 0:47 in Peggy-O, only the AUD plays.


    length     expanded size    cdr  WAVE problems  fmt   ratio  filename
     7:44.69       82011932 B   ---   --   ---xx  gd78-04-19d1t01.flac
     6:39.65       70536524 B   ---   --   ---xx  gd78-04-19d1t02.flac
     9:30.51      100667996 B   ---   --   ---xx  gd78-04-19d1t03.flac
     6:40.05       70571804 B   ---   --   ---xx  gd78-04-19d1t04.flac
     7:26.03       78681500 B   ---   --   ---xx  gd78-04-19d1t05.flac
     5:04.55       53755004 B   ---   --   ---xx  gd78-04-19d1t06.flac
     8:17.10       87694364 B   ---   --   ---xx  gd78-04-19d1t07.flac
     3:03.11       32307116 B   ---   --   ---xx  gd78-04-19d1t08.flac
     6:35.40       69772124 B   ---   --   ---xx  gd78-04-19d1t09.flac
     6:59.04       73921052 B   ---   --   ---xx  gd78-04-19d1t10.flac
     8:23.15       88764524 B   ---   --   ---xx  gd78-04-19d2t01.flac
     7:36.72       80607788 B   ---   --   ---xx  gd78-04-19d2t02.flac
    14:07.66      149566076 B   ---   --   ---xx  gd78-04-19d2t03.flac
    11:15.38      119159420 B   ---   --   ---xx  gd78-04-19d2t04.flac
    18:21.45      194322284 B   ---   --   ---xx  gd78-04-19d2t05.flac
     8:30.64       90114572 B   ---   --   ---xx  gd78-04-19d3t01.flac
     8:12.69       86951132 B   ---   --   ---xx  gd78-04-19d3t02.flac
    10:32.23      111538940 B   ---   --   ---xx  gd78-04-19d3t03.flac
     9:32.15      100936124 B   ---   --   ---xx  gd78-04-19d3t04.flac
    10:42.69      113411132 B   ---   --   ---xx  gd78-04-19d3t05.flac
   175:17.39     1855291408 B                            0.5289  (20 files)
ffp
gd78-04-19d1t01.flac:b8400a7e1f7a16e93f5fe18254b31c24
gd78-04-19d1t02.flac:2586884c54d31cfee2863950c638ecc2
gd78-04-19d1t03.flac:4e7271756b8fdd05de8c2f4fd700cb9c
gd78-04-19d1t04.flac:71566074c74895cd5525f596baf734c3
gd78-04-19d1t05.flac:f37166780fa21db5549d336111d0f7fd
gd78-04-19d1t06.flac:46c8d6de2d2e71dc7fcf10347ff068ca
gd78-04-19d1t07.flac:5154b892c6194832d715c46c7ba73437
gd78-04-19d1t08.flac:c20f61ed678eb26d23860580f1b12c9a
gd78-04-19d1t09.flac:818b744f82794003e90566af743ff60f
gd78-04-19d1t10.flac:f35ac510e74a87239de0d441ff72381f
gd78-04-19d2t01.flac:b296a95e65ef851202b97057eb30ba9c
gd78-04-19d2t02.flac:dae30f9fa169ece08498f4bd7977d73c
gd78-04-19d2t03.flac:b24ffba35962d152c491d743ffacf00b
gd78-04-19d2t04.flac:aeaf31a183b5a3242aaa51d602fa80d4
gd78-04-19d2t05.flac:556bd3d6bf4c9c7d05934b22e9f7fc86
gd78-04-19d3t01.flac:2322f82226727cdfa09d9aeede3f997b
gd78-04-19d3t02.flac:980d58daff3c21ca651de11a3f5b2947
gd78-04-19d3t03.flac:0d42a56194cfb07c8e5dc9eea7901d83
gd78-04-19d3t04.flac:0e4e4d37aeec66a9c89cc87a228818ae
gd78-04-19d3t05.flac:6a838eff835210b272d0981efb7dac68
776c760ac90be23a032c74fa7fc624ba *gd78-04-19d1t01.flac
dcf4f28ea88d1ba3237023dabb0988f2 *gd78-04-19d1t02.flac
b4c7f3cf9f13958e70711c8b8c3ff5b3 *gd78-04-19d1t03.flac
9a785097132fa4a0ca99823925d05e17 *gd78-04-19d1t04.flac
efb2b26054cf20457d2de739cb0c1701 *gd78-04-19d1t05.flac
3670807afdf1e5a9dbfc5749004d8e7e *gd78-04-19d1t06.flac
9cd84e28a05f39e401bda0a2836127cb *gd78-04-19d1t07.flac
e63d029430e8c7a4619ce6a381ac8150 *gd78-04-19d1t08.flac
71441edaa70b2f362e12297431485e25 *gd78-04-19d1t09.flac
bfb4e577f05a6d606ab094a5efff58dc *gd78-04-19d1t10.flac
99107e25336251902d6ae19e76b4aab2 *gd78-04-19d2t01.flac
b6a0d600ce69a20e435f53dc065f25c4 *gd78-04-19d2t02.flac
05d2216c2de857c34d223c6980929579 *gd78-04-19d2t03.flac
df31f7201a462b1a3e1fad5af686710c *gd78-04-19d2t04.flac
683f0fcb96f8cec9e76ad63e26b25365 *gd78-04-19d2t05.flac
5c10a3a9242e18bc508ebd60b60bd088 *gd78-04-19d3t01.flac
8cc45b53bc92fd59fa08cb4ed4fc86e1 *gd78-04-19d3t02.flac
2ef808e1a9a031d04ebae0ae55b22eba *gd78-04-19d3t03.flac
5d4ef5f326ee0bf9a516a9b0cf8e6337 *gd78-04-19d3t04.flac
7481613310d6a098de8644baff4085bb *gd78-04-19d3t05.flac

Comments
etreedb.org
For administrative requests email contact@etreedb.org
This website written by Tom H Anderson and maintained by the etreedb.org community.

Cached: Sat, 19 Oct 2019 15:59:15 EDT