Grateful Dead 09/14/78
Gizah Sound and Light Theater, Cairo, Egypt
Source Summary
flac16; 2 Nakamichi 700 cardioid mic's, Sony TCM 158 stereo cassette recorder ,1st gen Maxell UDXL 2 cass Sony TC-KE5000S Cassette player > 16/44.1 wave > Tascam CD-RW 750 > EAC > 16/44.1 Wave > wavelab 5 > plugins > flac lvl 8 (tlh)
Grateful Dead
09/14/1978
Gizah Sound and Light Theater
Cairo, Egypt

Source: Audience Recording
Lineage: 2 Nakamichi 700 cardioid mic's, Sony TCM 158 stereo cassette recorder ,1st gen Maxell UDXL 2 cass
Sony TC-KE5000S Cassette player > 16/44.1 wave > Tascam CD-RW 750 > EAC > 16/44.1 Wave > wavelab 5 > plugins
> flac lvl 8 (tlh)

Patch material used from shnID 6032


Set 1

d1t01. Ollin Arrageed*->
d1t02. Not Fade Away
d1t03. Me any My Uncle
d1t04. They Love Each Other
d1t05. Minglewood Blues
d1t06. Peggy-O
d2t01. Beat It On Down the Line
d2t02. Deal

Set 2


d2t03. Sugaree
d2t04. Samson & Delilah
d2t05. Scarlet Begonias->
d2t06. Fire On The Mountain
d2t07. Truckin->
d2t08. The Other One->
d3t01. Drums->
d3t02. Space->
d3t03. Black Peter->
d3t04. Around & Around

* with Hamza el-Din  

-------------------------------------------------------

Notes:

- all of Me and my uncle patched from shn ID 6032

- Patch in minglewood from shnID 6032

- Patch at the beginning og Peggy-O from shnID 6032

- Patch in drums/space from shnID 6032

- The taper paused between some songs. Where large chunks are missing, patches spliced from 6032, others crossfaded
to preserve continuity without being overly invasive.

- Ok, here is the story. Last week or so I was contacted by a fellow LL'er named moon. He Pm'ed me and asked
if he could seed some new sources for the 9/14/15/16/1978 shows. This really sparked my curiosity. The files were
transferred to my server to have a listen and look. After listening myself, and asking other respected members of the
communities opinion, we came to the conclusion these are new sources, I decided to have a go at just putting a
little polish on them, very little was done aside from the above listed patches and a gain bump since the files were
provided at 16/44.1. The taper did all the transfer work and passed this along anonymously, which he wishes to remain
and I will respect. The first set of this show was taped on mic stands. After the first set, the taper was asked to take
them down, so he impromptu began to stealth record the show, thus explaining the sonic changes, and the lack of wind noise
after the set break. Just as a disclaimer here, I'm in no way shape or form declaring this an upgrade, just an additional
source these deserve to circulate and I am happy to get this tapers work out there. Take what you want and leave the rest.

- Thanks to the anonymous taper, bagsgroove, and moon for helping get this to me and relaying information.

---------------------------------------------------------

- Taped by anonymous source

- Transferred  by anonymous source

- Edited by Bgreen

- Tracked, flac'ed, and packed by Bgreen

- First seeded to www.shnflac.net sept.2008

- SHNID XXXXX

- Brought To You By Live Music Preservation Project

Need transfers or post processing? Have questions/comments

contact lmpp.productions@gmail.com


-----------------------------------------------------------

ShnTool Output:

    length     expanded size   cdr  WAVE problems filename
    26:27.59      280085612    ---   --   ---xx   gd78-09-14.d1t01.flac
    13:28.01      142533596    ---   --   ---xx   gd78-09-14.d1t02.flac
     3:26.46       36446636    ---   --   ---xx   gd78-09-14.d1t03.flac
     7:30.25       79438844    ---   --   ---xx   gd78-09-14.d1t04.flac
     5:41.53       60277100    ---   --   ---xx   gd78-09-14.d1t05.flac
     8:41.37       91991468    ---   --   ---xx   gd78-09-14.d1t06.flac
     5:04.00       53625644    ---   --   ---xx   gd78-09-14.d2t01.flac
     6:01.02       63685148    ---   --   ---xx   gd78-09-14.d2t02.flac
     9:01.63       95580620    ---   --   ---xx   gd78-09-14.d2t03.flac
     8:49.61       93459116    ---   --   ---xx   gd78-09-14.d2t04.flac
     4:15.35       45064364    ---   --   ---xx   gd78-09-14.d2t05.flac
    17:31.23      185450540    ---   --   ---xx   gd78-09-14.d2t06.flac
     8:09.64       86410172    ---   --   ---xx   gd78-09-14.d2t07.flac
     6:20.19       67076732    ---   --   ---xx   gd78-09-14.d2t08.flac
     9:43.11      102867116    ---   --   ---xx   gd78-09-14.d3t01.flac
     7:48.08       82574060    ---   --   ---xx   gd78-09-14.d3t02.flac
    11:03.72      117122588    ---   --   ---xx   gd78-09-14.d3t03.flac
     8:10.66       86591276    ---   --   ---xx   gd78-09-14.d3t04.flac
   167:15.45     1770280632 B                     (totals for 18 files, 0.5685 overall compression ratio)
ffp
gd78-09-14.d1t01.flac:c5774304b8bbbc95c7eb46c1173e6475
gd78-09-14.d1t02.flac:a1a2fb21d6156af519083e8285b0e38c
gd78-09-14.d1t03.flac:8b1a53c4e50a36121c0c434203a98428
gd78-09-14.d1t04.flac:e1aa06062dba34b7b960da0077ca4ee2
gd78-09-14.d1t05.flac:c40de1787b7a843cff6981c90d6e41fc
gd78-09-14.d1t06.flac:80f0c8b7749cdd546a47da11a834c20c
gd78-09-14.d2t01.flac:fb1fb9146aaeda2b95bded992966d2d6
gd78-09-14.d2t02.flac:eeef30670224f68cc0edac183dd8ec45
gd78-09-14.d2t03.flac:254332bfdfc598170da011f597cbfed8
gd78-09-14.d2t04.flac:1b7f20c674e2cc81a744a29d62f57d1f
gd78-09-14.d2t05.flac:735680b166bdfcf7a1e135bb941aeb19
gd78-09-14.d2t06.flac:5a91fc3a436bcd68a8e372c07e5d2970
gd78-09-14.d2t07.flac:30375f306e043518f20a0c0dfc30b8c3
gd78-09-14.d2t08.flac:eeab321fead7274e86019e2930268bd1
gd78-09-14.d3t01.flac:ae188b975552af3697a85c94ba4f2e50
gd78-09-14.d3t02.flac:327c7ddaaaff744076d50ba76340b08b
gd78-09-14.d3t03.flac:3646ed116b3448463f66a43cabe1bc9d
gd78-09-14.d3t04.flac:8c08b55652427810cc6afe246b0c2047
4bee1a642a50aa878d3bea1c4d9b5d1e *gd78-09-14.d1t01.flac
1895c4d1a5105ac261bab6d4b4f8c381 *gd78-09-14.d1t02.flac
0ee8f9ce649df121ab23ade4380d9a91 *gd78-09-14.d1t03.flac
9af22ad2357a5e4c0fa13ff50d0f36d1 *gd78-09-14.d1t04.flac
587fc017965b40f7e8dbe2a9b5658343 *gd78-09-14.d1t05.flac
4eaa792d5ca09a7484e32287971787a9 *gd78-09-14.d1t06.flac
34253eafce53babf810d1389fbc30283 *gd78-09-14.d2t01.flac
d83cb2b61ff9468e07bebc1bc6b0a1cc *gd78-09-14.d2t02.flac
89545c958f2b374c8b0f7b6b0d3b549b *gd78-09-14.d2t03.flac
430113ccfccae7b3deb50777787e5c9b *gd78-09-14.d2t04.flac
c98b744a5293e4a7e56faa5c091078d1 *gd78-09-14.d2t05.flac
5802f6e06141128e094b2066bcd60a32 *gd78-09-14.d2t06.flac
3ab94ca328ad57ca928cebb63db99cfe *gd78-09-14.d2t07.flac
676112569f199ca28d0e163232dc9fc8 *gd78-09-14.d2t08.flac
dbc26f804c8e8acbbc2c32a36bdbff69 *gd78-09-14.d3t01.flac
27c4317dead6c277983bbb90ea70e60b *gd78-09-14.d3t02.flac
e01e3c62849a6f4148777ada82be2db0 *gd78-09-14.d3t03.flac
f2c6c24ed1dab807fd41ce8b5f99562b *gd78-09-14.d3t04.flac

Comments
etreedb.org
For administrative requests email contact@etreedb.org
This website written by Tom H Anderson and maintained by the etreedb.org community.

Cached: Wed, 18 Sep 2019 12:34:58 EDT