Grateful Dead 10/22/78
Winterland Arena, San Francisco, CA
Source Summary
flac16; MOTB0018 Analog Lineage: 2 x AKG d224e => Sony TC 158 >> MAC >> Nakamichi CR7a => Korg MR-1000 >> DSF [1-bit 5.6448 MHz Stereo] >> Korg MR-1000 => Korg AudioGate >> WAV [24/96] Taped By: Reinhart Hohlwein Transfer By: Bob Menke Mastered By: Derek McCabe Tagged By: Jeff Thomas
OTB Release: 0018 16/44.1
Release Date: 2008-09-25
Band: Grateful Dead
Date: 1978-10-22 (Sunday)
Venue: Winterland
Location: San Fransico, CA
Analog Audience Source: Aud Master Cassettes (MAC)
Medium Stock Brands: MAC = 3 x Maxell UDXL II
Analog Lineage: 2 x  AKG d224e => Sony TC 158 >> MAC
Analog Sound Preservation: MAC >> Nakamichi CR7a => Korg MR-1000 >> DSF [1-bit 5.6448 MHz Stereo] >> Korg MR-1000 => Korg AudioGate >> WAV [24/96]
Taped By: Reinhart Hohlwein
Transfer By: Bob Menke
Mastering By: Derek McCabe
Tagged by: Jeff Thomas
Special: Rhinotrocity #5


Set I
d1t01 - Intro
d1t02 - Hamza el-Din #1
d1t03 - Hamza el-Din #2
d1t04 - Ollin Arrageed >
d1t05 - Deal
d1t06 - Me & My Uncle >
d1t07 - Big River
d1t08 - Friend Of The Devil
d1t00 - Minglewood Blues
d2t01 - Peggy-O
d2t02. Jack Straw

Set II
d2t03 - Intro
d2t04 - Scarlet Begonias >
d2t05 - Fire On The Mountain
d2t07 - Samson & Delilah
d2t08 - From The Heart Of Me
d2t09 - I Need A Miracle >
d3t01 - Drums > **
d3t02 - Not Fade Away > **
d3t03 - Goin' Down The Road ***

Encore:
d3t04 - Johnny B. Goode


** with Lee Oskar
*** with John Cipollina

-- Not Fade Away contains a Mind Left Body Jam, Caution Jam and Mojo Jam

Patch info:
"Not Fade Away" tape flip at 1:37 - 1:51 patched with gd78-10-22.sbd.miller.92567.sbeok.flac16

shntool:
    length     expanded size    cdr  WAVE problems  fmt   ratio  filename
     1:46.67       18856028 B   ---   --   ---xx   flac  0.4586  gd1978-10-22.aud.rhinotrocity6.motb.0018.d1t01.flac
     2:44.50       29047244 B   ---   --   ---xx   flac  0.4959  gd1978-10-22.aud.rhinotrocity6.motb.0018.d1t02.flac
     3:53.24       41157692 B   ---   --   ---xx   flac  0.4550  gd1978-10-22.aud.rhinotrocity6.motb.0018.d1t03.flac
    20:27.71      216609836 B   ---   --   ---xx   flac  0.5638  gd1978-10-22.aud.rhinotrocity6.motb.0018.d1t04.flac
     7:18.53       77387900 B   ---   --   ---xx   flac  0.5988  gd1978-10-22.aud.rhinotrocity6.motb.0018.d1t05.flac
     3:21.26       35517596 B   ---   --   ---xx   flac  0.6040  gd1978-10-22.aud.rhinotrocity6.motb.0018.d1t06.flac
     7:13.03       76388300 B   ---   --   ---xx   flac  0.5891  gd1978-10-22.aud.rhinotrocity6.motb.0018.d1t07.flac
     9:03.09       95806412 B   ---   --   ---xx   flac  0.5673  gd1978-10-22.aud.rhinotrocity6.motb.0018.d1t08.flac
     5:18.33       56172860 B   ---   --   ---xx   flac  0.5866  gd1978-10-22.aud.rhinotrocity6.motb.0018.d1t09.flac
    10:30.59      111270812 B   ---   --   ---xx   flac  0.5426  gd1978-10-22.aud.rhinotrocity6.motb.0018.d2t01.flac
     6:27.65       68419724 B   ---   --   ---xx   flac  0.6052  gd1978-10-22.aud.rhinotrocity6.motb.0018.d2t02.flac
     1:03.50       11230844 B   ---   --   ---xx   flac  0.5237  gd1978-10-22.aud.rhinotrocity6.motb.0018.d2t03.flac
    11:44.43      124286780 B   ---   --   ---xx   flac  0.5382  gd1978-10-22.aud.rhinotrocity6.motb.0018.d2t04.flac
    14:04.59      149020412 B   ---   --   ---xx   flac  0.5396  gd1978-10-22.aud.rhinotrocity6.motb.0018.d2t05.flac
     9:52.25      104487644 B   ---   --   ---xx   flac  0.5779  gd1978-10-22.aud.rhinotrocity6.motb.0018.d2t06.flac
     4:51.49       51447692 B   ---   --   ---xx   flac  0.5467  gd1978-10-22.aud.rhinotrocity6.motb.0018.d2t07.flac
     7:49.25       82790444 B   ---   --   ---xx   flac  0.5733  gd1978-10-22.aud.rhinotrocity6.motb.0018.d2t08.flac
    12:29.16      132161276 B   ---   --   ---xx   flac  0.5450  gd1978-10-22.aud.rhinotrocity6.motb.0018.d3t01.flac
    21:57.17      232358828 B   ---   --   ---xx   flac  0.5620  gd1978-10-22.aud.rhinotrocity6.motb.0018.d3t02.flac
     8:39.71       91718636 B   ---   --   ---xx   flac  0.5828  gd1978-10-22.aud.rhinotrocity6.motb.0018.d3t03.flac
     5:00.62       53065868 B   ---   --   ---xx   flac  0.5920  gd1978-10-22.aud.rhinotrocity6.motb.0018.d3t04.flac
   175:39.52     1859202828 B                            0.5607  (21 files)
ffp
gd1978-10-22.aud.rhinotrocity6.motb.0018.d1t01.flac:c7bbae6d65527f1f73bf4f43458f2fd3
gd1978-10-22.aud.rhinotrocity6.motb.0018.d1t02.flac:886c763e4a72ffd931d8945e053fa902
gd1978-10-22.aud.rhinotrocity6.motb.0018.d1t03.flac:5a3d0ad6140a65c29374c2aef5c7ffbc
gd1978-10-22.aud.rhinotrocity6.motb.0018.d1t04.flac:c0b096afdb80ba356c1cfc6b28ae781a
gd1978-10-22.aud.rhinotrocity6.motb.0018.d1t05.flac:bb2e3ce847608e14630692c5494799bc
gd1978-10-22.aud.rhinotrocity6.motb.0018.d1t06.flac:17776dced88463ec576bdc8586fdda18
gd1978-10-22.aud.rhinotrocity6.motb.0018.d1t07.flac:d2b4d127cdd22b285e4f3c4981f24f5a
gd1978-10-22.aud.rhinotrocity6.motb.0018.d1t08.flac:2edbd21645f9f6f12f4412c66dd1f6a5
gd1978-10-22.aud.rhinotrocity6.motb.0018.d1t09.flac:a03d06155fe276d5af2875994417ce0a
gd1978-10-22.aud.rhinotrocity6.motb.0018.d2t01.flac:6e40778dedb5e2ce87e151c925e6d1e9
gd1978-10-22.aud.rhinotrocity6.motb.0018.d2t02.flac:8c159e7e1c3b3ee75eaafbbcec24a186
gd1978-10-22.aud.rhinotrocity6.motb.0018.d2t03.flac:eb22dcc9895a5df5d6f0cfea285002bb
gd1978-10-22.aud.rhinotrocity6.motb.0018.d2t04.flac:bd9c716125f3ac50c947e5eb4bfa9611
gd1978-10-22.aud.rhinotrocity6.motb.0018.d2t05.flac:e281be522a8ab59062365e9c59c89a0d
gd1978-10-22.aud.rhinotrocity6.motb.0018.d2t06.flac:5accb3da79aadbb228983de9cf9ebfb8
gd1978-10-22.aud.rhinotrocity6.motb.0018.d2t07.flac:60dee3aa13bf7daffa570bba5bff6086
gd1978-10-22.aud.rhinotrocity6.motb.0018.d2t08.flac:d99088fc93fa62746ec3b0d3a3ef95e3
gd1978-10-22.aud.rhinotrocity6.motb.0018.d3t01.flac:324baa70af9eb4568ac67f8e77750c03
gd1978-10-22.aud.rhinotrocity6.motb.0018.d3t02.flac:7027e139d2e905895e1abd1b1d367e07
gd1978-10-22.aud.rhinotrocity6.motb.0018.d3t03.flac:dd0b50146ed922f8e1a91f8a6fdae47b
gd1978-10-22.aud.rhinotrocity6.motb.0018.d3t04.flac:f689f43a2c980d597d78d8b89af10f40
cfp
*gd1978-10-22.aud.rhinotrocity6.motb.0018.d1t01.flac
*gd1978-10-22.aud.rhinotrocity6.motb.0018.d1t02.flac
*gd1978-10-22.aud.rhinotrocity6.motb.0018.d1t03.flac
*gd1978-10-22.aud.rhinotrocity6.motb.0018.d1t04.flac
*gd1978-10-22.aud.rhinotrocity6.motb.0018.d1t05.flac
*gd1978-10-22.aud.rhinotrocity6.motb.0018.d1t06.flac
*gd1978-10-22.aud.rhinotrocity6.motb.0018.d1t07.flac
*gd1978-10-22.aud.rhinotrocity6.motb.0018.d1t08.flac
*gd1978-10-22.aud.rhinotrocity6.motb.0018.d1t09.flac
*gd1978-10-22.aud.rhinotrocity6.motb.0018.d2t01.flac
*gd1978-10-22.aud.rhinotrocity6.motb.0018.d2t02.flac
*gd1978-10-22.aud.rhinotrocity6.motb.0018.d2t03.flac
*gd1978-10-22.aud.rhinotrocity6.motb.0018.d2t04.flac
*gd1978-10-22.aud.rhinotrocity6.motb.0018.d2t05.flac
*gd1978-10-22.aud.rhinotrocity6.motb.0018.d2t06.flac
*gd1978-10-22.aud.rhinotrocity6.motb.0018.d2t07.flac
*gd1978-10-22.aud.rhinotrocity6.motb.0018.d2t08.flac
*gd1978-10-22.aud.rhinotrocity6.motb.0018.d3t01.flac
*gd1978-10-22.aud.rhinotrocity6.motb.0018.d3t02.flac
*gd1978-10-22.aud.rhinotrocity6.motb.0018.d3t03.flac
*gd1978-10-22.aud.rhinotrocity6.motb.0018.d3t04.flac
81599822b9509072efe4f8d411f1d7d1 [shntool] composite
7ee036b3118ee368b903791af33a739f *gd1978-10-22.aud.rhinotrocity6.motb.0018.d1t01.flac
02bf29ac99c1d4f595b7ba5cc86bfc93 *gd1978-10-22.aud.rhinotrocity6.motb.0018.d1t02.flac
432746d6260979d68bc7fc59eb26a5c1 *gd1978-10-22.aud.rhinotrocity6.motb.0018.d1t03.flac
e4fb25c48470a9904c4091004558b07f *gd1978-10-22.aud.rhinotrocity6.motb.0018.d1t04.flac
bec19134a1afa40150d351d57c90e08d *gd1978-10-22.aud.rhinotrocity6.motb.0018.d1t05.flac
b036ecb34b91a3f852c06f3ae8b602c9 *gd1978-10-22.aud.rhinotrocity6.motb.0018.d1t06.flac
a4f0d06f482feba29970cb3676e6c3e1 *gd1978-10-22.aud.rhinotrocity6.motb.0018.d1t07.flac
ae31891ab63edfd9737c3e29676ef3ed *gd1978-10-22.aud.rhinotrocity6.motb.0018.d1t08.flac
e97425a5ac70fad5944b270a52c125e7 *gd1978-10-22.aud.rhinotrocity6.motb.0018.d1t09.flac
dd6c7947358942bc8c931991db4b574d *gd1978-10-22.aud.rhinotrocity6.motb.0018.d2t01.flac
de74c45049949d8e5023a2e60bc3e8a7 *gd1978-10-22.aud.rhinotrocity6.motb.0018.d2t02.flac
36e6cd47ef87187be935c27e74acc0a3 *gd1978-10-22.aud.rhinotrocity6.motb.0018.d2t03.flac
804e7f3f49e67c8c076299d302dd5db0 *gd1978-10-22.aud.rhinotrocity6.motb.0018.d2t04.flac
813470c4b1e168500f07e24c47aaca43 *gd1978-10-22.aud.rhinotrocity6.motb.0018.d2t05.flac
d33413c5d3107e670c04fee29de893e5 *gd1978-10-22.aud.rhinotrocity6.motb.0018.d2t06.flac
7121f4b46db517f0530df524ed799a5d *gd1978-10-22.aud.rhinotrocity6.motb.0018.d2t07.flac
f1f18d9a462483ec3927dfe5706b8a8b *gd1978-10-22.aud.rhinotrocity6.motb.0018.d2t08.flac
dd88d506ad5a517749b840727258b07a *gd1978-10-22.aud.rhinotrocity6.motb.0018.d3t01.flac
25ec66be28c10963ec530fa088e26682 *gd1978-10-22.aud.rhinotrocity6.motb.0018.d3t02.flac
d1312f9974f44a20f4845a8066891784 *gd1978-10-22.aud.rhinotrocity6.motb.0018.d3t03.flac
06f7f8661766b04d0c1cd86546fb28c7 *gd1978-10-22.aud.rhinotrocity6.motb.0018.d3t04.flac

Comments
etreedb.org
For administrative requests email contact@etreedb.org
This website written by Tom H Anderson and maintained by the etreedb.org community.

Cached: Tue, 17 Sep 2019 13:22:32 EDT