Grateful Dead 01/10/78
Shrine Auditorium, Los Angeles, CA
Source Summary
flac16; Aud Master Cassettes (MAC) Medium Stock Brands: MAC = 3 x Maxell UDXL II 2 x AKG D224E's => Sony TC 158 >> MAC >> Nakamichi CR7a => Korg MR-1000 >> DSF [1-bit 5.6448 MHz Stereo] >> Korg AudioGate >> WAV [24/96]
MOTB Release: 0026 16/44.1
Release Date: 2008-10-01
Band: Grateful Dead
Date: 1978-01-10 (Tuesday)
Venue: Shrine Auditorium
Location: Los Angeles, CA
Analog Audience Source: Aud Master Cassettes (MAC)
Medium Stock Brands: MAC = 3 x Maxell UDXL II
Analog Lineage: 2 x  AKG D224E's => Sony TC 158 >> MAC
Analog Sound Preservation: MAC >> Nakamichi CR7a => Korg MR-1000 >> DSF [1-bit 5.6448 MHz Stereo] >>  Korg AudioGate >> WAV [24/96]
Taped By: Reinhart Hohlwein
Transfer By: Bob Menke
Mastering By: Derek McCabe
Tagged by: Adam Egert
Special: Rhinotrocity #7


Set 1
d1t01 - Bertha >
d1t02 - Good Lovin'
d1t03 - Brown Eyed Women
d1t04 - Mexicali Blues >
d1t05 - Me & My Uncle
d1t06 - Friend Of The Devil
d1t07 - Cassidy
d1t08 - Candyman
d1t09 - Passenger
d1t10 - Sunrise
d1t11 - Deal >
d1t12 - The Music Never Stopped

Set 2:
d2t01 - intro
d2t02 - Jack Straw
d2t03 - It Must Have Been The Roses
d2t04 - Estimated Prophet >
d2t05 - He's Gone >
d3t01 - Drums >
d3t02 - The Other One >
d3t03 - Wharf Rat >
d3t04 - Franklin's Tower >
d3t05 - Around & Around

encore:
d3t06 - U.S. Blues

Notes from McCabe:
Tape was stopped between every song in first set. Tape flip in middle on drum solo.
No patches were applied. Everything left as in from master tape. A matrix version has been created that includes all crowd patches between songs and drum solo patch. We chose to do this as to enable this version to be Downloadable on the archive.


shntool
    length     expanded size    cdr  WAVE problems  fmt   ratio  filename
     7:37.07       80631308 B   ---   --   ---xx   flac  0.5244  gd1978-01-10.aud.Rhinotrocity7.motb.d1t01.flac
     6:15.10       66173564 B   ---   --   ---xx   flac  0.5271  gd1978-01-10.aud.Rhinotrocity7.motb.d1t02.flac
     6:30.69       68958332 B   ---   --   ---xx   flac  0.5127  gd1978-01-10.aud.Rhinotrocity7.motb.d1t03.flac
     3:48.59       40358012 B   ---   --   ---xx   flac  0.5151  gd1978-01-10.aud.Rhinotrocity7.motb.d1t04.flac
     3:26.60       36479564 B   ---   --   ---xx   flac  0.5302  gd1978-01-10.aud.Rhinotrocity7.motb.d1t05.flac
     9:06.39       96406172 B   ---   --   ---xx   flac  0.5208  gd1978-01-10.aud.Rhinotrocity7.motb.d1t06.flac
     5:18.35       56177564 B   ---   --   ---xx   flac  0.5292  gd1978-01-10.aud.Rhinotrocity7.motb.d1t07.flac
     8:19.53       88148300 B   ---   --   ---xx   flac  0.5144  gd1978-01-10.aud.Rhinotrocity7.motb.d1t08.flac
     5:14.69       55551932 B   ---   --   ---xx   flac  0.5479  gd1978-01-10.aud.Rhinotrocity7.motb.d1t09.flac
     4:41.29       49636652 B   ---   --   ---xx   flac  0.5171  gd1978-01-10.aud.Rhinotrocity7.motb.d1t10.flac
     6:24.32       67812908 B   ---   --   ---xx   flac  0.5132  gd1978-01-10.aud.Rhinotrocity7.motb.d1t11.flac
     7:29.08       79222460 B   ---   --   ---xx   flac  0.5295  gd1978-01-10.aud.Rhinotrocity7.motb.d1t12.flac
     0:50.02        8824748 B   ---   --   ---xx   flac  0.4456  gd1978-01-10.aud.Rhinotrocity7.motb.d2t01.flac
     5:57.20       63021884 B   ---   --   ---xx   flac  0.5169  gd1978-01-10.aud.Rhinotrocity7.motb.d2t02.flac
     7:34.20       80132684 B   ---   --   ---xx   flac  0.4755  gd1978-01-10.aud.Rhinotrocity7.motb.d2t03.flac
    13:50.00      146412044 B   ---   --   ---xx   flac  0.4893  gd1978-01-10.aud.Rhinotrocity7.motb.d2t04.flac
    12:49.51      135771596 B   ---   --   ---xx   flac  0.4656  gd1978-01-10.aud.Rhinotrocity7.motb.d2t05.flac
     6:12.10       65644364 B   ---   --   ---xx   flac  0.4755  gd1978-01-10.aud.Rhinotrocity7.motb.d3t01.flac
     9:27.29      100087052 B   ---   --   ---xx   flac  0.5349  gd1978-01-10.aud.Rhinotrocity7.motb.d3t02.flac
    10:35.73      112185740 B   ---   --   ---xx   flac  0.4885  gd1978-01-10.aud.Rhinotrocity7.motb.d3t03.flac
    10:12.04      107966252 B   ---   --   ---xx   flac  0.5149  gd1978-01-10.aud.Rhinotrocity7.motb.d3t04.flac
     8:08.20       86130284 B   ---   --   ---xx   flac  0.5352  gd1978-01-10.aud.Rhinotrocity7.motb.d3t05.flac
     6:21.16       67246076 B   ---   --   ---xx   flac  0.5147  gd1978-01-10.aud.Rhinotrocity7.motb.d3t06.flac
   166:11.40     1758979492 B                            0.5095  (23 files)

No errors occured.
ffp
gd1978-01-10.aud.Rhinotrocity7.motb.d1t01.flac:535389cca06b31dacd5c37b7f7f3174b
gd1978-01-10.aud.Rhinotrocity7.motb.d1t02.flac:d2023b79a06586c4ef0de3b37578711f
gd1978-01-10.aud.Rhinotrocity7.motb.d1t03.flac:6bee82184bd72ad3cc6c15bf41640002
gd1978-01-10.aud.Rhinotrocity7.motb.d1t04.flac:cd312576257e71117cb04cb5c9a6b2c1
gd1978-01-10.aud.Rhinotrocity7.motb.d1t05.flac:cfbf7767ed3e044a651a74fa0b189d8d
gd1978-01-10.aud.Rhinotrocity7.motb.d1t06.flac:57bace1a2eb314850e1171e08da49456
gd1978-01-10.aud.Rhinotrocity7.motb.d1t07.flac:3048a4255c7f1f014a3638019947e454
gd1978-01-10.aud.Rhinotrocity7.motb.d1t08.flac:1ec827a3ecae33d36b16ec0ee8df0ace
gd1978-01-10.aud.Rhinotrocity7.motb.d1t09.flac:555e59e0b183c48f14bc8fcbb186c678
gd1978-01-10.aud.Rhinotrocity7.motb.d1t10.flac:9d7241c0f07855daa3dbe3fe10efaa4c
gd1978-01-10.aud.Rhinotrocity7.motb.d1t11.flac:8e21784b944d28b5d7fa186efb69b045
gd1978-01-10.aud.Rhinotrocity7.motb.d1t12.flac:bcda0c8d1414b4ca255024c344e3d584
gd1978-01-10.aud.Rhinotrocity7.motb.d2t01.flac:dc97b7256b01e5e4b71e8b019d508245
gd1978-01-10.aud.Rhinotrocity7.motb.d2t02.flac:19a8c3cc3f715a16f164374f163b8dbd
gd1978-01-10.aud.Rhinotrocity7.motb.d2t03.flac:9f0c7212b7e29b22bdb7e9a1b54b12fb
gd1978-01-10.aud.Rhinotrocity7.motb.d2t04.flac:9f5631d6d395e799af3a21ca513f8d81
gd1978-01-10.aud.Rhinotrocity7.motb.d2t05.flac:7a056da6faaaee072a14c38b5e192385
gd1978-01-10.aud.Rhinotrocity7.motb.d3t01.flac:15854f74ac3444c99a82c3cd1f74c252
gd1978-01-10.aud.Rhinotrocity7.motb.d3t02.flac:eedc91c87cce590782d19c36710ccd10
gd1978-01-10.aud.Rhinotrocity7.motb.d3t03.flac:2d57ef05f2794b73499da0379a377cb8
gd1978-01-10.aud.Rhinotrocity7.motb.d3t04.flac:0e783e07d819ad84e19057e498a9f4b5
gd1978-01-10.aud.Rhinotrocity7.motb.d3t05.flac:a767f9f05179a8486118cada202a98f5
gd1978-01-10.aud.Rhinotrocity7.motb.d3t06.flac:439b9340a8494eb50629fdc036da05d1
cfp
*gd1978-01-10.aud.Rhinotrocity7.motb.d1t01.flac
*gd1978-01-10.aud.Rhinotrocity7.motb.d1t02.flac
*gd1978-01-10.aud.Rhinotrocity7.motb.d1t03.flac
*gd1978-01-10.aud.Rhinotrocity7.motb.d1t04.flac
*gd1978-01-10.aud.Rhinotrocity7.motb.d1t05.flac
*gd1978-01-10.aud.Rhinotrocity7.motb.d1t06.flac
*gd1978-01-10.aud.Rhinotrocity7.motb.d1t07.flac
*gd1978-01-10.aud.Rhinotrocity7.motb.d1t08.flac
*gd1978-01-10.aud.Rhinotrocity7.motb.d1t09.flac
*gd1978-01-10.aud.Rhinotrocity7.motb.d1t10.flac
*gd1978-01-10.aud.Rhinotrocity7.motb.d1t11.flac
*gd1978-01-10.aud.Rhinotrocity7.motb.d1t12.flac
*gd1978-01-10.aud.Rhinotrocity7.motb.d2t01.flac
*gd1978-01-10.aud.Rhinotrocity7.motb.d2t02.flac
*gd1978-01-10.aud.Rhinotrocity7.motb.d2t03.flac
*gd1978-01-10.aud.Rhinotrocity7.motb.d2t04.flac
*gd1978-01-10.aud.Rhinotrocity7.motb.d2t05.flac
*gd1978-01-10.aud.Rhinotrocity7.motb.d3t01.flac
*gd1978-01-10.aud.Rhinotrocity7.motb.d3t02.flac
*gd1978-01-10.aud.Rhinotrocity7.motb.d3t03.flac
*gd1978-01-10.aud.Rhinotrocity7.motb.d3t04.flac
*gd1978-01-10.aud.Rhinotrocity7.motb.d3t05.flac
*gd1978-01-10.aud.Rhinotrocity7.motb.d3t06.flac
3e86821f299bff2c68dfc74d39e4d96f [shntool] composite
de2aac195c016224730050de8ed12eca *gd1978-01-10.aud.rhinotrocity7.motb.d1t01.flac
b316c6b5fc71a62fd4f866b56b753802 *gd1978-01-10.aud.rhinotrocity7.motb.d1t02.flac
dd83b785cb58c2939aba0cfa9ca06d7f *gd1978-01-10.aud.rhinotrocity7.motb.d1t03.flac
7c45914a03b97d6c394a83bf45ad314c *gd1978-01-10.aud.rhinotrocity7.motb.d1t04.flac
ea68c5ae39b9e0403bf28ba8f80ba8a9 *gd1978-01-10.aud.rhinotrocity7.motb.d1t05.flac
fd167b963809383a774db21994269787 *gd1978-01-10.aud.rhinotrocity7.motb.d1t06.flac
e7d5e7bd2f5a5b9e9753b263fbd3015b *gd1978-01-10.aud.rhinotrocity7.motb.d1t07.flac
2899e5c4d19450e3565cbc9aed672dbd *gd1978-01-10.aud.rhinotrocity7.motb.d1t08.flac
ba150c56ebd29d743ab9ff379dffb13e *gd1978-01-10.aud.rhinotrocity7.motb.d1t09.flac
f6d489901b5f6c2a0ac77c0d65aef68f *gd1978-01-10.aud.rhinotrocity7.motb.d1t10.flac
ed9e4cf1989f6454dbdcfb9af3b946a6 *gd1978-01-10.aud.rhinotrocity7.motb.d1t11.flac
65478a817d5c4c3c2115a65740089a51 *gd1978-01-10.aud.rhinotrocity7.motb.d1t12.flac
12b21d01268227611016dbfc34791113 *gd1978-01-10.aud.rhinotrocity7.motb.d2t01.flac
98eaf2b2da6dac46094840071d8f35d6 *gd1978-01-10.aud.rhinotrocity7.motb.d2t02.flac
816445104bf9870abc82e2254575db49 *gd1978-01-10.aud.rhinotrocity7.motb.d2t03.flac
78888d85bb1052440b46f406d2cef00b *gd1978-01-10.aud.rhinotrocity7.motb.d2t04.flac
f408ed837a0640063537fb5f41bd5579 *gd1978-01-10.aud.rhinotrocity7.motb.d2t05.flac
82a314fb0f20c038368e6002c3d37d8c *gd1978-01-10.aud.rhinotrocity7.motb.d3t01.flac
633b2bb2986bf2972b13b983a5756ab2 *gd1978-01-10.aud.rhinotrocity7.motb.d3t02.flac
f0959c8e1646eebfc51293e67c03321b *gd1978-01-10.aud.rhinotrocity7.motb.d3t03.flac
29993a047b6711c76fff81b90d541ac9 *gd1978-01-10.aud.rhinotrocity7.motb.d3t04.flac
13433f35d5a42a714df737c30d09066a *gd1978-01-10.aud.rhinotrocity7.motb.d3t05.flac
62ee98e9c73fa759faff451d71b84167 *gd1978-01-10.aud.rhinotrocity7.motb.d3t06.flac

Comments
etreedb.org
For administrative requests email contact@etreedb.org
This website written by Tom H Anderson and maintained by the etreedb.org community.

Cached: Tue, 17 Sep 2019 09:22:21 EDT