Grateful Dead 01/10/78
Shrine Auditorium, Los Angeles, CA
Source Summary
flac16 Matrix: MAC = 3 x Maxell UDXL II A2 x AKG D224E's => Sony TC 158 >> MAC >> Nakamichi CR7a => Korg MR-1000 >> DSF [1-bit 5.6448 MHz Stereo] >> Korg AudioGate >> WAV [24/96] and SBD>MC>?>CD>EAC>SHN (Source ID 14523)
MTX Release:  16/44.1
Release Date: 2008-10-01
Band: Grateful Dead
Date: 1978-01-10 (Tuesday)
Venue: Shrine Auditorium
Location: Los Angeles, CA
Soundboard Source: gd1978-01-10.14523
Analog Audience Source: Aud Master Cassettes (MAC)
Medium Stock Brands: MAC = 3 x Maxell UDXL II
Analog Lineage: 2 x  AKG D224E's => Sony TC 158 >> MAC
Analog Sound Preservation: MAC >> Nakamichi CR7a => Korg MR-1000 >> DSF [1-bit 5.6448 MHz Stereo] >>  Korg AudioGate >> WAV [24/96]
Taped By: Reinhart Hohlwein
Transfer By: Bob Menke
Mastering By: Derek McCabe
Tagged by: Adam Egert
Special: Rhinotrocity #7

Set 1
d1t01 - crowd
d1t02 - Bertha >
d1t03 - Good Lovin'
d1t04 - crowd
d1t05 - Brown Eyed Women
d1t06 - crowd
d1t07 - Mexicali Blues >
d1t08 - Me & My Uncle
d1t09 - crowd
d1t10 - Friend Of The Devil
d1t11 - crowd
d1t12 - Cassidy
d1t13 - crowd
d1t14 - Candyman
d1t15 - crowd
d1t16 - Passenger
d1t17 - crowd
d1t18 - Sunrise
d1t19 - crowd
d2t01 - Deal >
d2t02 - The Music Never Stopped

Set 2
d2t03 - Jack Straw
d2t04 - tuning
d2t05 - It Must Have Been The Roses
d3t01 - Estimated Prophet >
d3t02 - He's Gone >
d3t03 - Drums >
d3t04 - The Other One >
d3t05 - Wharf Rat >
d3t06 - Franklin's Tower >
d3t07 - Around & Around
encore:
d3t08 - U.S. Blues

Notes from McCabe:

SBD source used gd1978-01-10.14523

The SBD runs fast. I changed the speed to match more closely to the AUD, but both sources had speed changes that varied throughout the recording. A minor amount of hiss reduction was used on the SBD tracks for ONLY the crowd sections. The SBD is very hissy due to improper Dolby A decoding. No hiss or changes to the SBD tracks during the musical sections.

shntool
    length     expanded size    cdr  WAVE problems  fmt   ratio  filename
     2:09.31       22828556 B   ---   --   ---xx   flac  0.2822  gd1978-01-10.mtx.d1t01.flac
     7:00.61       74231516 B   ---   --   ---xx   flac  0.5346  gd1978-01-10.mtx.d1t02.flac
     6:21.19       67253132 B   ---   --   ---xx   flac  0.5324  gd1978-01-10.mtx.d1t03.flac
     3:38.33       38532860 B   ---   --   ---xx   flac  0.2991  gd1978-01-10.mtx.d1t04.flac
     6:08.09       64936412 B   ---   --   ---xx   flac  0.5030  gd1978-01-10.mtx.d1t05.flac
     1:48.39       19142972 B   ---   --   ---xx   flac  0.2922  gd1978-01-10.mtx.d1t06.flac
     3:43.59       39476012 B   ---   --   ---xx   flac  0.5166  gd1978-01-10.mtx.d1t07.flac
     3:37.65       38431724 B   ---   --   ---xx   flac  0.5080  gd1978-01-10.mtx.d1t08.flac
     2:11.55       23237804 B   ---   --   ---xx   flac  0.3100  gd1978-01-10.mtx.d1t09.flac
     8:17.08       87689660 B   ---   --   ---xx   flac  0.5030  gd1978-01-10.mtx.d1t10.flac
     1:06.30       11713004 B   ---   --   ---xx   flac  0.2951  gd1978-01-10.mtx.d1t11.flac
     5:20.28       56513900 B   ---   --   ---xx   flac  0.5219  gd1978-01-10.mtx.d1t12.flac
     1:51.20       19627484 B   ---   --   ---xx   flac  0.2926  gd1978-01-10.mtx.d1t13.flac
     7:43.52       81795548 B   ---   --   ---xx   flac  0.4988  gd1978-01-10.mtx.d1t14.flac
     1:11.11       12550316 B   ---   --   ---xx   flac  0.2981  gd1978-01-10.mtx.d1t15.flac
     5:18.35       56177564 B   ---   --   ---xx   flac  0.5385  gd1978-01-10.mtx.d1t16.flac
     1:10.41       12444476 B   ---   --   ---xx   flac  0.3109  gd1978-01-10.mtx.d1t17.flac
     4:13.61       44772716 B   ---   --   ---xx   flac  0.5002  gd1978-01-10.mtx.d1t18.flac
     1:41.48       17929340 B   ---   --   ---xx   flac  0.2763  gd1978-01-10.mtx.d1t19.flac
     5:57.29       63043052 B   ---   --   ---xx   flac  0.4982  gd1978-01-10.mtx.d2t01.flac
     7:25.14       78530972 B   ---   --   ---xx   flac  0.5239  gd1978-01-10.mtx.d2t02.flac
     4:12.53       44577500 B   ---   --   ---xx   flac  0.2935  gd1978-01-10.mtx.d2t03.flac
     8:20.25       88258844 B   ---   --   ---xx   flac  0.4502  gd1978-01-10.mtx.d2t04.flac
    11:10.13      118218620 B   ---   --   ---xx   flac  0.4083  gd1978-01-10.mtx.d2t05.flac
    13:44.44      145457132 B   ---   --   ---xx   flac  0.4911  gd1978-01-10.mtx.d3t01.flac
    12:48.37      135562268 B   ---   --   ---xx   flac  0.4763  gd1978-01-10.mtx.d3t02.flac
     6:19.06       66869756 B   ---   --   ---xx   flac  0.4933  gd1978-01-10.mtx.d3t03.flac
     9:30.13      100578620 B   ---   --   ---xx   flac  0.5314  gd1978-01-10.mtx.d3t04.flac
    10:34.17      111877628 B   ---   --   ---xx   flac  0.4918  gd1978-01-10.mtx.d3t05.flac
    10:12.35      108039164 B   ---   --   ---xx   flac  0.5121  gd1978-01-10.mtx.d3t06.flac
     8:22.41       88649276 B   ---   --   ---xx   flac  0.5233  gd1978-01-10.mtx.d3t07.flac
     5:57.14       63007772 B   ---   --   ---xx   flac  0.5198  gd1978-01-10.mtx.d3t08.flac
   189:08.71     2001955600 B                            0.4761  (32 files)

No errors occured.
ffp
gd1978-01-10.mtx.d1t01.flac:ddb9d873906b9a0d31e0d09dfda70220
gd1978-01-10.mtx.d1t02.flac:13629efd90c1bf3bb381df6d4c64a575
gd1978-01-10.mtx.d1t03.flac:6bc2dd55f24873dd2f58daa2eaa07730
gd1978-01-10.mtx.d1t04.flac:8d0e00477644604990953793262fe7c7
gd1978-01-10.mtx.d1t05.flac:55a87d75340d69027768cf027a2ef1fd
gd1978-01-10.mtx.d1t06.flac:12fd0138fec4657d9df9f935ad9b4864
gd1978-01-10.mtx.d1t07.flac:773c47baf36868cae8fdd415162f70b5
gd1978-01-10.mtx.d1t08.flac:a11c49a0dbab25010c75cf87a4f052f3
gd1978-01-10.mtx.d1t09.flac:961a4623a76217aaa3bd7b73c8c9c2d6
gd1978-01-10.mtx.d1t10.flac:3bbfd128040b6398ae7e7b9e0ce8e6df
gd1978-01-10.mtx.d1t11.flac:c6a4ef31e01845cf5288bde8c57dab15
gd1978-01-10.mtx.d1t12.flac:b9db785d9ce40d0098eedcfc4761d8a1
gd1978-01-10.mtx.d1t13.flac:71c6e293bb95671e6150fc555d00ab71
gd1978-01-10.mtx.d1t14.flac:3fc959da3507c4678a57cc3e8966d1c0
gd1978-01-10.mtx.d1t15.flac:6cd8a019c2fd8373b2c54d0cc3e670c1
gd1978-01-10.mtx.d1t16.flac:4209476f0e846398850439ea979d94c9
gd1978-01-10.mtx.d1t17.flac:62d9ca7c6c499ef9bc11ca3e2c0a8dbc
gd1978-01-10.mtx.d1t18.flac:a7de2e7c0af905bb1fae7dddbf654fd5
gd1978-01-10.mtx.d1t19.flac:62c53a54c11fb8e45984f9545aa4abf0
gd1978-01-10.mtx.d2t01.flac:ae6fed1b1408cbc8b9cc0ccf0c1058e7
gd1978-01-10.mtx.d2t02.flac:194f5c4fee603e43975477110ec02867
gd1978-01-10.mtx.d2t03.flac:4ba884aa56e04f15c64210db70cf2185
gd1978-01-10.mtx.d2t04.flac:53aeae5e7be79c410b6d42a20c38580e
gd1978-01-10.mtx.d2t05.flac:bd199112818f5d20e7770973b817feb6
gd1978-01-10.mtx.d3t01.flac:94bf02158a20fd04dda0774fab15ff8e
gd1978-01-10.mtx.d3t02.flac:3c5fbf70651ee34b2bd476610b8073c4
gd1978-01-10.mtx.d3t03.flac:3a0f3cef191e7286d5e3381526cb0d0f
gd1978-01-10.mtx.d3t04.flac:e71eca3155bbddb84f5d23b152902774
gd1978-01-10.mtx.d3t05.flac:1b9bd0da509d2000cc8be0c992106751
gd1978-01-10.mtx.d3t06.flac:76eccd251b0f0e45197a5df6d3aef1f2
gd1978-01-10.mtx.d3t07.flac:23569ca3db4d5a8300efa9baa3f02518
gd1978-01-10.mtx.d3t08.flac:4ecc0119a446d73ace3db97fdf6590da
561faf1120b0867b0059e824a817d08d *gd1978-01-10.mtx.d1t01.flac
3e22e331e1bb8a520a8fc2db4c7287fb *gd1978-01-10.mtx.d1t02.flac
efe9b35c86f4e878d7f9bfe3141bb191 *gd1978-01-10.mtx.d1t03.flac
d12bcc67a4ad8d107f05282305db0b81 *gd1978-01-10.mtx.d1t04.flac
20792fbdf1fecce7121dc73d941b3a86 *gd1978-01-10.mtx.d1t05.flac
18bc402580a547f7ef3c01aa71b4ba75 *gd1978-01-10.mtx.d1t06.flac
75346630433dbfe8e29bc6a910d14019 *gd1978-01-10.mtx.d1t07.flac
92f1afe66cd91a602670c000ae720b79 *gd1978-01-10.mtx.d1t08.flac
d6f418fdc43be1530645ab3414e61b4c *gd1978-01-10.mtx.d1t09.flac
400730c67fd5d5304abe1fc895f0422a *gd1978-01-10.mtx.d1t10.flac
f3e85be8850b6505898150056f316742 *gd1978-01-10.mtx.d1t11.flac
a1c33499d05b849d18c74fdff46536fc *gd1978-01-10.mtx.d1t12.flac
e0a42ef61eb5fd27652e4199e74e4e82 *gd1978-01-10.mtx.d1t13.flac
b687e123e7c5e9613aa2c92b91adbeb2 *gd1978-01-10.mtx.d1t14.flac
82d828d1da16c80b2f254e25c275a566 *gd1978-01-10.mtx.d1t15.flac
df2a62ea620e05eb491956bac54b624d *gd1978-01-10.mtx.d1t16.flac
50ad604c6a4fccf5085ade4fa0d4ea3e *gd1978-01-10.mtx.d1t17.flac
da11d239f3222db0d64569eed72d8210 *gd1978-01-10.mtx.d1t18.flac
c57a1e833dac0d9cbc1e8ea55b3df7ac *gd1978-01-10.mtx.d1t19.flac
0b04158595612a9c399dd3c1ac0c2775 *gd1978-01-10.mtx.d2t01.flac
5372348eb82f42bbd8c7d8c7e4502e61 *gd1978-01-10.mtx.d2t02.flac
a73164770de261c21d704b36ee6a7e61 *gd1978-01-10.mtx.d2t03.flac
cbf5537cbe7656bbc2e9f0cd17ddfce5 *gd1978-01-10.mtx.d2t04.flac
ea98af44c6c2003837d633832a862cf7 *gd1978-01-10.mtx.d2t05.flac
42d04140cc846f2c272a8d9246c96b6d *gd1978-01-10.mtx.d3t01.flac
307cb9b706d9d7fcf00d7b17ec682abc *gd1978-01-10.mtx.d3t02.flac
57eb78f2f6aca5ea9596983f83cb8d07 *gd1978-01-10.mtx.d3t03.flac
ab7e352f3d6c2aea8d49c8d8bcd6c9d4 *gd1978-01-10.mtx.d3t04.flac
880366da6ebd1913065ff36bfaf50569 *gd1978-01-10.mtx.d3t05.flac
a47580978cbf2b69fd090ba9d8036d06 *gd1978-01-10.mtx.d3t06.flac
64238611ea6b06bb89b96a168ec68ff0 *gd1978-01-10.mtx.d3t07.flac
ed8d8d6d0f36be374bf483129c9380e8 *gd1978-01-10.mtx.d3t08.flac

Comments
etreedb.org
For administrative requests email contact@etreedb.org
This website written by Tom H Anderson and maintained by the etreedb.org community.

Cached: Sun, 20 Oct 2019 02:58:10 EDT