Grateful Dead 11/20/78
Cleveland Music Hall, Cleveland, OH
Source Summary
flac16; Recording Info: Source 1: SBD -> ? -> Cassette -> CD; Source 2: SBD -> Master Cassette -> Dat -> CD; Source 3: Nakamichi 300 -> Reels? -> Dat -> CD; Source 4: SBD -> Master Reel -> Cassette -> Dat -> CD; Transfer Info: CD -> Adobe Audition v1.5 -> Samplitude Professional v10.1 -> FLAC; All Transfers and Mastering By Charlie Miller (Upgrade now in circulation)
Grateful Dead - November 20, 1978
Cleveland Music Hall - Cleveland, OH

Recording Info:
Source 1: SBD -> ? -> Cassette -> CD
Source 2: SBD -> Master Cassette -> Dat -> CD
Source 3: Nakamichi 300 -> Reels? -> Dat -> CD
Source 4: SBD -> Master Reel -> Cassette -> Dat -> CD

Transfer Info:
CD -> Adobe Audition v1.5 -> Samplitude Professional v10.1 -> FLAC
(2 Discs Audio / 2 Discs FLAC)

All Transfers and Mastering By Charlie Miller
charliemiller87@earthlink.net
October 10, 2008

Notes:
-- Sources 1 and 3 from shnid=21727
-- Source 2 may have extra cassette gen in it
-- This is far from perfect, but is much better than other circulating copies
-- Thanks to Joe B. Jones for his help with the pitch correction

Set 1:
d1t01 - Mississippi Half-Step Uptown Toodeloo -> (1)
d1t02 - Franklin's Tower (1)
d1t03 - Mama Tried -> (1)
d1t04 - Mexicali Blues (2)
d1t05 - It Must Have Been The Roses (2)
d1t06 - Looks Like Rain (1)
d1t07 - Stagger Lee (1)
d1t08 - Passenger (1)
d1t09 - Peggy-O (2)
d1t10 - Lazy Lightnin' -> (1)
d1t11 - Supplication (1)

Set 2:
d2t01 - Jam -> (3,4)
d2t02 - Drums -> (3,4)
d2t03 - Jam -> (4,2)
d2t04 - Jack-A-Roe (2)
d2t05 - Playing In The Band -> (2)
d2t06 - Shakedown Street -> (2)
d2t07 - If I Had The World To Give -> (2)
d2t08 - Playing In The Band -> (2,3)
d2t09 - Around And Around (3)


SHNTOOL OUTPUT:
    length     expanded size   cdr  WAVE problems filename
     8:55.42       94472828    ---   --   -----   gd78-11-20d1t01.wav
    14:38.48      154992140    ---   --   -----   gd78-11-20d1t02.wav
     2:31.48       26749340    ---   --   -----   gd78-11-20d1t03.wav
     5:18.52       56217548    ---   --   -----   gd78-11-20d1t04.wav
     7:45.35       82108364    ---   --   -----   gd78-11-20d1t05.wav
     7:17.48       77199740    ---   --   -----   gd78-11-20d1t06.wav
     7:53.31       83510156    ---   --   -----   gd78-11-20d1t07.wav
     4:41.15       49603724    ---   --   -----   gd78-11-20d1t08.wav
     9:11.26       97257596    ---   --   -----   gd78-11-20d1t09.wav
     3:40.52       38930348    ---   --   -----   gd78-11-20d1t10.wav
     5:48.15       61422524    ---   --   -----   gd78-11-20d1t11.wav
    10:03.56      106500956    ---   --   -----   gd78-11-20d2t01.wav
     3:02.28       32170700    ---   --   -----   gd78-11-20d2t02.wav
    10:39.73      112891340    ---   --   -----   gd78-11-20d2t03.wav
     4:40.73       49563740    ---   --   -----   gd78-11-20d2t04.wav
     9:40.00      102312044    ---   --   -----   gd78-11-20d2t05.wav
    12:13.71      129468236    ---   --   -----   gd78-11-20d2t06.wav
     7:27.03       78857900    ---   --   -----   gd78-11-20d2t07.wav
     6:31.17       69012428    ---   --   -----   gd78-11-20d2t08.wav
     8:57.60       94867964    ---   --   -----   gd78-11-20d2t09.wav
   150:59.43     1598109616 B                     (totals for 20 files)
ffp
gd78-11-20d1t01.flac:a61091963a60f8543dc55e386d27f118
gd78-11-20d1t02.flac:363f528ee51416de7fb4a145200f368f
gd78-11-20d1t03.flac:7a7fee372c7fc6a5e86e720afd281ea9
gd78-11-20d1t04.flac:93a30088d330f5791ad957eca5301074
gd78-11-20d1t05.flac:4b8ff4c5d5dde38aade62e325e9a5e8e
gd78-11-20d1t06.flac:8ad6f0ab9e7523a5c56427a1d38c6910
gd78-11-20d1t07.flac:df08c7ab5de424c0bad9bd8568be2b71
gd78-11-20d1t08.flac:d24db9c61c6f792d8aac775e29a3db9c
gd78-11-20d1t09.flac:2e831fc713d840257583e2a5d9e1de36
gd78-11-20d1t10.flac:dede54243a99c4b1615996598877280b
gd78-11-20d1t11.flac:528311df7dbefb4904132d0f88f2663f
gd78-11-20d2t01.flac:9331322cba340776581cb0e51cf31689
gd78-11-20d2t02.flac:016ae5eb0eecfce1f365ac5d9f82b839
gd78-11-20d2t03.flac:7009fc06992f94cf0ef2c52368b5d9de
gd78-11-20d2t04.flac:a2ad1b39425516de914d226cfb512076
gd78-11-20d2t05.flac:19d85183b0273a28f6e832112ac01b07
gd78-11-20d2t06.flac:7989dd803b07e85c0684f32a84ea00aa
gd78-11-20d2t07.flac:51b39364133d4c44686c099181b963da
gd78-11-20d2t08.flac:7e502dba2adca57c22a472e6b18826a8
gd78-11-20d2t09.flac:d0dbe23d7437013a2fcba535e3567737
b82bb4658c48624aeae3a10b159104bd *gd78-11-20d1t01.flac
421ffd87e390a10d121d851a06ce527f *gd78-11-20d1t02.flac
207f96bf946bedbd95569da2cd5a5b47 *gd78-11-20d1t03.flac
d85235590f4ccc0415d49e2b838fb203 *gd78-11-20d1t04.flac
0ea1d6c121dac02228e60b2164a6d515 *gd78-11-20d1t05.flac
1fc42a66a90e056668ba633f156c32e0 *gd78-11-20d1t06.flac
8d4ee5b42414d4ddb81f31d08cd6bcd0 *gd78-11-20d1t07.flac
42fa61bc5c5b1cd98eb1a6f9bb785a10 *gd78-11-20d1t08.flac
8d42ed68ffc17c2d9a67acf6cbaed6c5 *gd78-11-20d1t09.flac
c6166c4375ce25eec0b15a2447364c6c *gd78-11-20d1t10.flac
bc0a0b658f02a3cf41e6f3607029cbf8 *gd78-11-20d1t11.flac
cd975ecee867def7ec0f9088a47c7d23 *gd78-11-20d2t01.flac
ea769dfbf014639ab5852201151cd6a4 *gd78-11-20d2t02.flac
ad2fe82d4fd57d86bbadca1703433c38 *gd78-11-20d2t03.flac
6e078dad948e0f4acd172975793d2e7e *gd78-11-20d2t04.flac
0404b28cd213f23b8ab741b1796a599a *gd78-11-20d2t05.flac
e2330cfc305268ac13c64487e30684fc *gd78-11-20d2t06.flac
23de314487627266296002d47f253784 *gd78-11-20d2t07.flac
c509b9e0f3955ad14c785a9fade012a4 *gd78-11-20d2t08.flac
e0697d02a620a21b57b0441537091883 *gd78-11-20d2t09.flac

Comments
etreedb.org
For administrative requests email contact@etreedb.org
This website written by Tom H Anderson and maintained by the etreedb.org community.

Cached: Wed, 16 Oct 2019 17:32:18 EDT