Sam Holt & Tori Pater 10/11/08
Dulcinea's 100th Monkey, Denver, CO
Source # 95266
Entered by Matt Vernon
Checksums flac-md5
Disc Counts 1 / 1
Media Size
Date Circulated
Date Added
10/12/2008
10/13/2008
Download Text | Download Zip
Other Sources
Source Summary
4 Channel Mix Source 1: SBD(RCA out) > HD-P2(24/48/Word Clock from V3) 45% Transfer: HD-P2 > Firewire > Soundforge 9... Source 2: MBHO 603a/actives/KA200(FOH-R) > V3(24/48) > MT2496 55% Transfer: MT2496 > USB > Soundforge 9(Mix/Norm/Fades) > Wavelab(Dither/Resample to 16/44.1 UV22HR) > CDWave > FLAC16(8) House Sound: Matt Taped & Transfered by: Eric Foelske (taperwookie AT gmail.com)
Sam Holt & Tori Pater

Saturday, October 11, 2008
Dulcinea's 100th Monkey
Denver, CO

** 16 Bit **

(52:22)
1. Georgia Rhythm
2. Fat Man in the Bathtub
3. Shanty
4. Redneck Mothers
5. Voodoo
6. Travelin' Light
7. Can't Change the Past
8. Monkey Lover(?)
9. Sharon

Opened for Harmonius Junk

4 Channel Mix
Source 1: SBD(RCA out) > HD-P2(24/48/Word Clock from V3) 45%
Transfer: HD-P2 > Firewire > Soundforge 9...
Source 2: MBHO 603a/actives/KA200(FOH-R) > V3(24/48) > MT2496 55%
Transfer: MT2496 > USB > Soundforge 9(Mix/Norm/Fades) > Wavelab(Dither/Resample to 16/44.1 UV22HR) > CDWave > FLAC16(8)
House Sound: Matt
Taped & Transfered by: Eric Foelske (taperwookie AT gmail.com)
Thanks to Matt for the SBD patch and to Mikey Craig for use of the HD-P2!
-------------------------------------------------------
FLAC Fingerprint:
-------------------------------------------------------
shtp2008-10-11t01.flac:946cea256fb18530fefe956c9c992df5
shtp2008-10-11t02.flac:51da9038d05fa860d4d1105f86578ffd
shtp2008-10-11t03.flac:00121990ea6a75cb5d9ba36cf979b400
shtp2008-10-11t04.flac:d0216369a6815860d48a75cc3f18b63c
shtp2008-10-11t05.flac:b86555e02357a5f91f841d6617c508b6
shtp2008-10-11t06.flac:8b7514f78547ace8996b2b909ddbb37d
shtp2008-10-11t07.flac:70184cc0b6eb64e68159eb798bc7e066
shtp2008-10-11t08.flac:f41dd72bb9629623e44f92e447d2dcb6
shtp2008-10-11t09.flac:1caf1aa22b1d8d95fa882dd0271b0534
-------------------------------------------------------
shntool:
-------------------------------------------------------
    length     expanded size   cdr  WAVE problems filename
     6:32.49       69264092    ---   --   ---xx   shtp2008-10-11t01.flac
     6:14.05       65985404    ---   --   ---xx   shtp2008-10-11t02.flac
     3:20.23       35334140    ---   --   ---xx   shtp2008-10-11t03.flac
     3:06.46       32918636    ---   --   ---xx   shtp2008-10-11t04.flac
     9:00.00       95256044    ---   --   ---xx   shtp2008-10-11t05.flac
     6:05.08       64404860    ---   --   ---xx   shtp2008-10-11t06.flac
     4:22.18       46259180    ---   --   ---xx   shtp2008-10-11t07.flac
     4:33.02       48161948    ---   --   ---xx   shtp2008-10-11t08.flac
     9:08.63       96815420    ---   --   ---xx   shtp2008-10-11t09.flac
    52:22.64      554399724 B                     (totals for 9 files, 0.4860 overall compression ratio)
95d63d970bd9d04a0b472b4dfc1ff769 *shtp2008-10-11t01.flac
b25a45096140029f71562378c3fd83ff *shtp2008-10-11t02.flac
cbdf3ed502e8e5376bc31555d0bc6bc5 *shtp2008-10-11t03.flac
56114f46a7df01b6a8016fd732466f0b *shtp2008-10-11t04.flac
d70b65ec4944458a3146cac0b8ddae12 *shtp2008-10-11t05.flac
1478a338bfd0dfbf189530349c90324b *shtp2008-10-11t06.flac
72d04b36f2345ff66c7bc2993f653e6b *shtp2008-10-11t07.flac
3290b5946583d65b07162ee339e0daeb *shtp2008-10-11t08.flac
4be9c89bca33cedbe45bc19122bb85ed *shtp2008-10-11t09.flac

Comments
Date User Comment
etreedb.org
For administrative requests email contact@etreedb.org
This website written by Tom H Anderson and maintained by the etreedb.org community.

Cached: Sat, 20 Jul 2024 23:57:00 EDT