Grateful Dead 11/23/78
Capital Centre, Landover, MD
Source # 96031
Entered by dr.unclear
Checksums ffp , flac-md5
Disc Counts 2 / 3
Media Size
Date Circulated
Date Added
11/25/2008
11/25/2008
Source Summary
flac16; Recording Info: (FOB) Sony ECM250 -> Cassette Master (Maxell UD-XLII); Transfer Info: Cassette Master (Nakamichi DR-1) -> Sound Devices 744T (24bit/96k) -> Adobe Audition v1.5 -> Samplitude Professional v10.1 -> FLAC/16; Recorded By Joani Walker; All Transfers and Mastering By Charlie Miller
Grateful Dead - November 23, 1978
Capital Centre - Landover, MD

Recording Info:
(FOB) Sony ECM250 -> Cassette Master (Maxell UD-XLII)

Transfer Info:
Cassette Master (Nakamichi DR-1) -> Sound Devices 744T (24bit/96k) ->
Adobe Audition v1.5 -> Samplitude Professional v10.1 -> FLAC/16
(3 Discs Audio / 2 Discs FLAC)

All Transfers and Mastering By Charlie Miller
charliemiller87@earthlink.net
November 24, 2008

Patch Info:
Unknown Mics -> Cassette Master -> Dat -> CD (shnid=11668) supplies:
Playing In The Band (0:00 - 0:12)
Around And Around (7:11 - 7:23)

Notes:
-- Set 2 is seamless
-- Recorded By Joani Walker
-- Thanks to Paul Scotton and Joani Walker for the tapes
-- Thanks to Joe B. Jones for his help with the pitch correction

Set 1:
d1t01 - Mississippi Half-Step Uptown Toodeloo ->
d1t02 - Franklin's Tower ->
d1t03 - New Minglewood Blues
d1t04 - Stagger Lee
d1t05 - Looks Like Rain
d1t06 - Tennessee Jed
d1t07 - Passenger
d1t08 - Brown Eyed Women
d1t09 - The Music Never Stopped

Set 2:
d2t01 - Samson And Delilah
d2t02 - Friend Of The Devil
d2t03 - Dancing In The Street ->
d2t04 - Terrapin Station ->
d2t05 - Playing In The Band ->
d2t06 - Drums ->
d3t01 - Space ->
d3t02 - Ollin Arageed ->
d3t03 - Shakedown Street ->
d3t04 - Playing In The Band ->
d3t05 - Around And Around

Encore:
d3t06 - U.S. Blues


SHNTOOL OUTPUT:
    length     expanded size   cdr  WAVE problems filename
     9:41.65      102641324    ---   --   -----   gd78-11-23d1t01.wav
     9:47.23      103600940    ---   --   -----   gd78-11-23d1t02.wav
     6:56.21       73431836    ---   --   -----   gd78-11-23d1t03.wav
     6:51.26       72561596    ---   --   -----   gd78-11-23d1t04.wav
     8:16.52       87616748    ---   --   -----   gd78-11-23d1t05.wav
    10:19.42      109290428    ---   --   -----   gd78-11-23d1t06.wav
     5:29.20       58082684    ---   --   -----   gd78-11-23d1t07.wav
     6:22.42       67483628    ---   --   -----   gd78-11-23d1t08.wav
     7:52.63       83409020    ---   --   -----   gd78-11-23d1t09.wav
    10:25.45      110355884    ---   --   -----   gd78-11-23d2t01.wav
    10:00.28      105905900    ---   --   -----   gd78-11-23d2t02.wav
    10:05.66      106877276    ---   --   -----   gd78-11-23d2t03.wav
    13:32.12      143265068    ---   --   -----   gd78-11-23d2t04.wav
    10:02.65      106345724    ---   --   -----   gd78-11-23d2t05.wav
     7:18.01       77265596    ---   --   -----   gd78-11-23d2t06.wav
     0:49.31        8716556    ---   --   -----   gd78-11-23d3t01.wav
     5:17.42       56017628    ---   --   -----   gd78-11-23d3t02.wav
    10:27.09      110624012    ---   --   -----   gd78-11-23d3t03.wav
     3:34.30       37820204    ---   --   -----   gd78-11-23d3t04.wav
     9:51.64      104402972    ---   --   -----   gd78-11-23d3t05.wav
     5:35.49       59209292    ---   --   -----   gd78-11-23d3t06.wav
   168:38.46     1784924316 B                     (totals for 21 files)
ffp
gd78-11-23d1t01.flac:7e8d3001c448ecc664d1ad7d73cd2ff3
gd78-11-23d1t02.flac:6b9d651ee299e932b468b5c55174bcfc
gd78-11-23d1t03.flac:0381722cccf1b58650f42c757cd9b59d
gd78-11-23d1t04.flac:c60ac0303e89f6b9d97460a5f0dbae70
gd78-11-23d1t05.flac:1f953d1b8e250eb980d0fed55f75995d
gd78-11-23d1t06.flac:92e953e91f6f9e0fb3bef6f47309853f
gd78-11-23d1t07.flac:5fe48e94ccfa945c862464838d8b8ec2
gd78-11-23d1t08.flac:bb632ed39ff4a114c68594cd54ffd7db
gd78-11-23d1t09.flac:51017e1267756d1d3a2496feb76171b7
gd78-11-23d2t01.flac:9cf65d9a9c9ea8c18a4bbbda476ebc46
gd78-11-23d2t02.flac:457248e976e98ad339adce2a62214554
gd78-11-23d2t03.flac:d1f5a6d2f27fb8298e3d0f1319923927
gd78-11-23d2t04.flac:6b0acbdb496b51d03041b11dba46f786
gd78-11-23d2t05.flac:f5c97707c76a74e5f1201f97ce804995
gd78-11-23d2t06.flac:e8b34e65de72466a6d6dd12f901f4a39
gd78-11-23d3t01.flac:be565b3462b2a3140d345962c178cc43
gd78-11-23d3t02.flac:3cb83d59354b24a91f7b695070062e68
gd78-11-23d3t03.flac:51c17a07b56f09f88d7484911f00cda1
gd78-11-23d3t04.flac:6957dd89c54c95d683b0544a9f274dc7
gd78-11-23d3t05.flac:1a7de784948077a6f564b7586e58236b
gd78-11-23d3t06.flac:dcf59a71bc0634da1aed350b43829cf4
a302c45f0080f56c700dfde5deddf2ea *gd78-11-23d1t01.flac
f8c6459c17f5ab5632f8b70da4136eda *gd78-11-23d1t02.flac
44f09e5950ef45970e139e399e6ac3b5 *gd78-11-23d1t03.flac
bcf15f00f206337cbd83a65c8b6243f1 *gd78-11-23d1t04.flac
7843b38a41cdb12d4d14bf7fe3cefc2a *gd78-11-23d1t05.flac
a3b16959820c68d69ea23cee9b4669b3 *gd78-11-23d1t06.flac
01e79d24af72f9d2aee39832f3e6c2f6 *gd78-11-23d1t07.flac
6adaeda7b560e82804ba9bbfb6a6c233 *gd78-11-23d1t08.flac
d9ce4784dd02feb382551a26643fcedf *gd78-11-23d1t09.flac
89647efddf14ec152ff0a7645bbbf10a *gd78-11-23d2t01.flac
ef633f996984c7a97c719ba0da4efc33 *gd78-11-23d2t02.flac
668c971ae5fb759097dfef9f5924b988 *gd78-11-23d2t03.flac
0a6148f6771806a43320b7636760ff0c *gd78-11-23d2t04.flac
91efef9c9119c2b5264c9cd874c480f0 *gd78-11-23d2t05.flac
f55f14cfd108f62213bfb8269839d33d *gd78-11-23d2t06.flac
3a4d71e087d5569529970f03bb1ebab2 *gd78-11-23d3t01.flac
270829d9a87a734ab162325aaa310a2c *gd78-11-23d3t02.flac
81846a4867c14628fcb3425da5d58ad3 *gd78-11-23d3t03.flac
df404198395c9f7ec5ba94c0f2aaa721 *gd78-11-23d3t04.flac
384e5cea9c2e3346d57a96bfe5eb92ff *gd78-11-23d3t05.flac
a5cf72b23e50040fc6915c5b66e3b83b *gd78-11-23d3t06.flac

Comments
etreedb.org
For administrative requests email contact@etreedb.org
This website written by Tom H Anderson and maintained by the etreedb.org community.

Cached: Wed, 16 Oct 2019 17:35:15 EDT