Grateful Dead 04/22/78
Nashville Municipal Auditorium, Nashville, TN
Source Summary
flac16; Set 1 Recording Info:SBD -> Cassette Master -> Dat (44.1k); Transfer Info: Dat (Sony R500) -> Sound Devices 744T -> Samplitude Professional v10.2 -> FLAC; All Transfers and Mastering By Charlie Miller
Grateful Dead - April 22, 1978
Municipal Auditorium - Nashville, TN
**Set 1 Soundboard**

Recording Info:
SBD -> Cassette Master -> Dat (44.1k)

Transfer Info:
Dat (Sony R500) -> Sound Devices 744T -> Samplitude Professional v10.2 -> FLAC
(1 Disc Audio / 1 Disc FLAC)

All Transfers and Mastering By Charlie Miller
charliemiller87@earthlink.net
February 18, 2009

Notes:
-- Thanks to Rob Eaton for lending me his Dat

Set 1:
d1t01 - Bertha ->
d1t02 - Good Lovin'
d1t03 - Candyman
d1t04 - Looks Like Rain
d1t05 - Tennessee Jed
d1t06 - Jack Straw
d1t07 - Peggy-O
d1t08 - New Minglewood Blues
d1t09 - Deal

Encore:
d1t10 - One More Saturday Night


SHNTOOL OUTPUT:
    length     expanded size   cdr  WAVE problems filename
     7:38.12       80819468    ---   --   -----   gd78-04-22d1t01.wav
     7:56.28       84032300    ---   --   -----   gd78-04-22d1t02.wav
     8:29.73       89959340    ---   --   -----   gd78-04-22d1t03.wav
     8:55.16       94411676    ---   --   -----   gd78-04-22d1t04.wav
     9:43.58      102977660    ---   --   -----   gd78-04-22d1t05.wav
     6:06.72       64731788    ---   --   -----   gd78-04-22d1t06.wav
     8:49.25       93374444    ---   --   -----   gd78-04-22d1t07.wav
     6:07.28       64804700    ---   --   -----   gd78-04-22d1t08.wav
     8:26.16       89296076    ---   --   -----   gd78-04-22d1t09.wav
     5:26.53       57631100    ---   --   -----   gd78-04-22d1t10.wav
    77:40.06      822038552 B                     (totals for 10 files)
ffp
gd78-04-22d1t01.flac:64e715262bcac6cc8d8fe8b7da88d814
gd78-04-22d1t02.flac:0e54f5b0c1630d8ee1548ace5ce053df
gd78-04-22d1t03.flac:6c7d41a8ef95c952afea1c4f910cb3de
gd78-04-22d1t04.flac:dacbe4b5c8d12168d1ce45616f304321
gd78-04-22d1t05.flac:1ac5acd50a045e954b55f29939fdef65
gd78-04-22d1t06.flac:b65d21f6c77b226c4f59273de8014519
gd78-04-22d1t07.flac:1268a4e673f6b66f994841399971e940
gd78-04-22d1t08.flac:81eeafe8da8154d48d21a058c7e07ab5
gd78-04-22d1t09.flac:24b6f5f428da62e267cb40eb8eede70b
gd78-04-22d1t10.flac:5e87f15177cd1d8dee3d93e14735bc41
e414bd39f1161099aa5daec4614cc907 *gd78-04-22d1t01.flac
0c6f77429fb2fa763f28d414f5f5d923 *gd78-04-22d1t02.flac
a01b34dccc306a4ce7cb4333fa8fd677 *gd78-04-22d1t03.flac
71ec00d63a3457d6fae351da738954d9 *gd78-04-22d1t04.flac
93b9fc6a8d67fe54228c5e9ca6125196 *gd78-04-22d1t05.flac
805dc59c4006ec256e9c4fb5796c4d23 *gd78-04-22d1t06.flac
43a6fab8b895b5521cec5ac82ea9e735 *gd78-04-22d1t07.flac
8ec85bcec5428ac80346a53faf7d1772 *gd78-04-22d1t08.flac
a0ae9ab0b1c154c814e75f2bb58a1d9e *gd78-04-22d1t09.flac
d25407171b56f1ab4119e4e7bffbbf1f *gd78-04-22d1t10.flac

Comments
etreedb.org
For administrative requests email contact@etreedb.org
This website written by Tom H Anderson and maintained by the etreedb.org community.

Cached: Wed, 18 Sep 2019 12:34:47 EDT