Grateful Dead 04/24/78
Horton Field House, Illinois State University, Normal, IL
Source Summary
flac16; Recording Info: SBD -> Cassette Master -> Dat (44.1k) Transfer Info: Dat (Sony R500) -> Sound Devices 744T -> Samplitude Professional v10.2 -> FLAC; All Transfers and Mastering By Charlie Miller
Grateful Dead - April 24, 1978
Horton Field House - Normal, IL
Illinois State University

Recording Info:
SBD -> Cassette Master -> Dat (44.1k)

Transfer Info:
Dat (Sony R500) -> Sound Devices 744T -> Samplitude Professional v10.2 -> FLAC
(3 Discs Audio / 2 Discs FLAC)

All Transfers and Mastering By Charlie Miller
charliemiller87@earthlink.net
February 19, 2009

Notes:
-- Set 2 disc change is seamless
-- There's a Stayin' Alive tease in Big River
-- Tape flips in Drums and Around & Around

Set 1:
d1t01 - Tuning
d1t02 - The Promised Land
d1t03 - Ramble On Rose
d1t04 - Stayin' Alive tease ->
d1t05 - Me And My Uncle ->
d1t06 - Big River
d1t07 - Friend Of The Devil
d1t08 - Cassidy
d1t09 - Brown Eyed Women
d1t10 - Passenger
d1t11 - It Must Have Been The Roses
d1t12 - The Music Never Stopped

Set 2:
d2t01 - Tuning
d2t02 - Scarlet Begonias ->
d2t03 - Fire On The Mountain ->
d2t04 - Good Lovin'
d2t05 - Terrapin Station ->
d2t06 - Drums ->
d3t01 - Space ->
d3t02 - Not Fade Away ->
d3t03 - Black Peter ->
d3t04 - Around And Around

Encore:
d3t05 - Werewolves Of London


SHNTOOL OUTPUT:
    length     expanded size   cdr  WAVE problems filename
     1:03.65       11266124    ---   --   -----   gd78-04-24d1t01.wav
     5:25.35       57412364    ---   --   -----   gd78-04-24d1t02.wav
     8:06.45       85836284    ---   --   -----   gd78-04-24d1t03.wav
     0:19.66        3506876    ---   --   -----   gd78-04-24d1t04.wav
     3:08.29       33231452    ---   --   -----   gd78-04-24d1t05.wav
     6:27.50       68384444    ---   --   -----   gd78-04-24d1t06.wav
    10:06.44      107001932    ---   --   -----   gd78-04-24d1t07.wav
     5:32.52       58687148    ---   --   -----   gd78-04-24d1t08.wav
     6:20.27       67095548    ---   --   -----   gd78-04-24d1t09.wav
     5:49.33       61641260    ---   --   -----   gd78-04-24d1t10.wav
     8:07.53       86031500    ---   --   -----   gd78-04-24d1t11.wav
     8:58.41       94999676    ---   --   -----   gd78-04-24d1t12.wav
     2:14.53       23762300    ---   --   -----   gd78-04-24d2t01.wav
    12:35.55      133311404    ---   --   -----   gd78-04-24d2t02.wav
    11:12.56      118672556    ---   --   -----   gd78-04-24d2t03.wav
     7:25.31       78570956    ---   --   -----   gd78-04-24d2t04.wav
    10:51.24      114892892    ---   --   -----   gd78-04-24d2t05.wav
    13:22.00      141472844    ---   --   -----   gd78-04-24d2t06.wav
     6:42.64       71063372    ---   --   -----   gd78-04-24d3t01.wav
    11:17.67      119580428    ---   --   -----   gd78-04-24d3t02.wav
    11:46.50      124656044    ---   --   -----   gd78-04-24d3t03.wav
     6:44.55       71395004    ---   --   -----   gd78-04-24d3t04.wav
     7:57.45       84248684    ---   --   -----   gd78-04-24d3t05.wav
   171:38.65     1816721092 B                     (totals for 23 files)
ffp
gd78-04-24d1t01.flac:deb59e1f17f5363e5178d348528f3218
gd78-04-24d1t02.flac:b5f762e7564e35056b9897e047825781
gd78-04-24d1t03.flac:cc9a65a50fa469655d5b86e09ca7dba0
gd78-04-24d1t04.flac:8919c466f2387734ef3e143c0e2fc4dd
gd78-04-24d1t05.flac:7c93ae388e826872e11075223facb6fe
gd78-04-24d1t06.flac:7842d93c8b8998ce719d56436656c16a
gd78-04-24d1t07.flac:d5d3b91db4e451eb23bd46ddb6fd848f
gd78-04-24d1t08.flac:dd6cd8be10a368e8e3295afa95abe14c
gd78-04-24d1t09.flac:29532f79f7b32cbb1b188e959fdf7b60
gd78-04-24d1t10.flac:5b058be88fba8c253fde264a1222602d
gd78-04-24d1t11.flac:5947799c76a4985544c55d2627dc409d
gd78-04-24d1t12.flac:5840d1799c45695bf874bb9e3a33c0cf
gd78-04-24d2t01.flac:fb23ef375f1ce2b987a953c6ddb0f851
gd78-04-24d2t02.flac:019d39b18d3a14bf247ff58a8b2e8d67
gd78-04-24d2t03.flac:365b3a68a0cfe374f8bffd4aee762577
gd78-04-24d2t04.flac:2054fd21d3fb9249aed78ec70fe87417
gd78-04-24d2t05.flac:17009a66534f82f3dc7bf8a64b59af62
gd78-04-24d2t06.flac:7efefcf64b01f4954c22de017e93549f
gd78-04-24d3t01.flac:6c4782049d1b8d0edd6e4aa5fa26812d
gd78-04-24d3t02.flac:5e158fe6c7145c46c7dee0ba0035f7af
gd78-04-24d3t03.flac:7c96338bbb41c4306b946549de33062d
gd78-04-24d3t04.flac:d827a7e892cc5a5dd6cc087b9edaba50
gd78-04-24d3t05.flac:aa8fbdaa1e752a75915112716dc48b69
01e4673b07ca52bc199f46eeaccd052c *gd78-04-24d1t01.flac
e206a75f7d6b4a640300f86a10bb0de7 *gd78-04-24d1t02.flac
7041e2aa1780984b96b914891c981f34 *gd78-04-24d1t03.flac
919f5531b4725b0518fe539e11f6bea2 *gd78-04-24d1t04.flac
f8168af64ce8c7d9744e18b2d68cc20e *gd78-04-24d1t05.flac
125886c6c0a55572314c5af2f2a23020 *gd78-04-24d1t06.flac
af5e9605b54e11ec62c9a9999db0cf67 *gd78-04-24d1t07.flac
771e28c0aec3f244d8573a68833fe121 *gd78-04-24d1t08.flac
5ea363464502297dbb208dac8a826178 *gd78-04-24d1t09.flac
0cd02f82b14f3224bca555c8ed65323d *gd78-04-24d1t10.flac
12e4386b019e98a9e8096bd9c97429e0 *gd78-04-24d1t11.flac
0200583b5d2e0b4cb677eb2424fa8624 *gd78-04-24d1t12.flac
df903eb52253b23f4a603d463400c012 *gd78-04-24d2t01.flac
5187b6e84b84bdc23be23b2f9874ab3d *gd78-04-24d2t02.flac
a6b43507a1f9922eb063d18490140981 *gd78-04-24d2t03.flac
657afec9e90c1750fbf0d8e338674c70 *gd78-04-24d2t04.flac
518a4ce626db44285935fc8a4a21166b *gd78-04-24d2t05.flac
723bc73f65af2e95e27b1e46b21f3c63 *gd78-04-24d2t06.flac
18e544157c744768d0499eb4885dc9b9 *gd78-04-24d3t01.flac
db0536cad3e846badbedba0df809e442 *gd78-04-24d3t02.flac
a2d00760565fdf143572def5a5a9ab8a *gd78-04-24d3t03.flac
fcbc4f937f48ce236835468c137a579a *gd78-04-24d3t04.flac
36ee3bbdec3e446f047706dda0d26fc5 *gd78-04-24d3t05.flac

Comments
etreedb.org
For administrative requests email contact@etreedb.org
This website written by Tom H Anderson and maintained by the etreedb.org community.

Cached: Tue, 17 Sep 2019 09:24:08 EDT