Grateful Dead 04/16/78
Huntington Civic Center, Huntington, WV
Source Summary
flac16; Matrix by Hunter Seamons using Final Cut Pro (FLAC>AIFF>Final Cut>WAV>FLAC)
Grateful Dead
Huntington Civic Center
Huntington, WV
April 16, 1978

Jerry Garcia - Lead Guitar, Vocals
Donna Jean Godchaux - Vocals
Keith Godchaux - Keyboards
Mickey Hart - Drums
Bill Kreutzmann - Drums
Phil Lesh - Electric Bass, Vocals
Bob Weir - Rhythm Guitar, Vocals



*Matrix*

----------------------------------------------------
SBD (shnid=82273):

Recording Info:
SBD -> Master Reel -> PCM -> Dat (44.1k)

Transfer Info:
Dat -> Samplitude Professional v8.01 -> FLAC
(3 Discs Audio / 2 Discs FLAC)

All Transfers and Mastering By Charlie Miller
charliemiller87@earthlink.net
January 28, 2007

----------------------------------------------------
AUD (shnid=98510):

source: aud 1st gen reel
Jerry Moore's copy

mastered: (3)sony ecm54p's>nak 550>patch>sony tc-158sd

lineage: mac>7" reel @ 7.5 ips, dolby b
taped by Bob Wagner

technics rs-1506>sony nr-335>hd-p2 24/48>cd wave>
adobe 2.0 16/44>flac
transferred & seeded to LL by Rob Berger

---------------------------------------------------
Thank you to Charlie Miller for the SBD transfer,
to Bob Wagner for recording the show,
and to Jerry Moore and Rob Berger for the AUD transfer.

Matrix by Hunter Seamons using Final Cut Pro (FLAC>AIFF>Final Cut>WAV>FLAC)
April 15, 2009


Set I
-----
d1t01 - Tuning
d1t02 - Jack Straw
d1t03 - Dire Wolf
d1t04 - Cassidy
d1t05 - Peggy-O
d1t06 - Mexicali Blues ->
d1t07 - Mama Tried
d1t08 - They Love Each Other
d1t09 - Minglewood Blues
d1t10 - Scarlet Begonias ->
d1t11 - Fire On The Mountain

Set II
-----
d2t01 - Tuning
d2t02 - Samson And Delilah
d2t03 - Ship Of Fools
d2t04 - Estimated Prophet ->
d2t05 - Eyes Of The World ->
d2t06 - Drums ->
d3t01 - Space ->
d3t02 - Iko Iko ->
d3t03 - Sugar Magnolia

Encore
------
d3t04 - U.S. Blues


    length     expanded size    cdr  WAVE problems  fmt   ratio  filename
     0:47.11        8316716 B   ---   --   ---xx  gd78-04-16d1t01.flac
     6:12.02       65625548 B   ---   --   ---xx  gd78-04-16d1t02.flac
     5:27.02       57687548 B   ---   --   ---xx  gd78-04-16d1t03.flac
     6:03.60       64174364 B   ---   --   ---xx  gd78-04-16d1t04.flac
     8:33.09       90514412 B   ---   --   ---xx  gd78-04-16d1t05.flac
     3:25.60       36303164 B   ---   --   ---xx  gd78-04-16d1t06.flac
     3:28.26       36752396 B   ---   --   ---xx  gd78-04-16d1t07.flac
     7:56.11       83992316 B   ---   --   ---xx  gd78-04-16d1t08.flac
     6:47.23       71848940 B   ---   --   ---xx  gd78-04-16d1t09.flac
     9:54.22      104833388 B   ---   --   ---xx  gd78-04-16d1t10.flac
     9:26.00       99842444 B   ---   --   ---xx  gd78-04-16d1t11.flac
     0:53.09        9370412 B   ---   --   ---xx  gd78-04-16d2t01.flac
     8:00.28       84737900 B   ---   --   ---xx  gd78-04-16d2t02.flac
     9:00.41       95352476 B   ---   --   ---xx  gd78-04-16d2t03.flac
    12:04.51      127833596 B   ---   --   ---xx  gd78-04-16d2t04.flac
    11:45.31      124434956 B   ---   --   ---xx  gd78-04-16d2t05.flac
    14:46.64      156440972 B   ---   --   ---xx  gd78-04-16d2t06.flac
     4:31.10       47827964 B   ---   --   ---xx  gd78-04-16d3t01.flac
    12:07.45      128348684 B   ---   --   ---xx  gd78-04-16d3t02.flac
    11:18.63      119747420 B   ---   --   ---xx  gd78-04-16d3t03.flac
     5:42.74       60502892 B   ---   --   ---xx  gd78-04-16d3t04.flac
   158:12.42     1674488508 B                            0.5524  (21 files)
ffp
gd78-04-16d1t01.flac:9bb244cae48c807318814cd490a9be90
gd78-04-16d1t02.flac:59bef37e46b530e9c049c16f3fc77395
gd78-04-16d1t03.flac:08008e501cd55b82283b5acc87e81edf
gd78-04-16d1t04.flac:0437362f3a514d89791a3c58a6bfc94b
gd78-04-16d1t05.flac:134c25921ffb00866c80bd31a6aa187e
gd78-04-16d1t06.flac:ed53895d1ca09aa24f124890dd027d6f
gd78-04-16d1t07.flac:f2ecc068fc8ae739bfb3d6305f7bcc3a
gd78-04-16d1t08.flac:28dc7b865a7f64cbf7003d0eba5fd60e
gd78-04-16d1t09.flac:f9f75d077f973325f7443006e7c5cfd7
gd78-04-16d1t10.flac:ca970568c338de8d97129a9dc448100e
gd78-04-16d1t11.flac:ca0f516274b0a9d9d9b397b0e07dfd4c
gd78-04-16d2t01.flac:5ef06f4a16bac389a1a85c277a12bbdb
gd78-04-16d2t02.flac:510f4d650395a003639e0beebffe604c
gd78-04-16d2t03.flac:aa6926e42642bda8eef6251d34caa95a
gd78-04-16d2t04.flac:eaa34b54602b268be36b4cf0b8060f00
gd78-04-16d2t05.flac:176d5ec9345cfbbe4c2a40129202e5c1
gd78-04-16d2t06.flac:0be76c30d260c3255867d18acef2bc45
gd78-04-16d3t01.flac:5d3e44a561e81f249b98ee376cc3cd41
gd78-04-16d3t02.flac:31ae668dc1fe9d0105d9078a5a23b298
gd78-04-16d3t03.flac:89f2104bcd1cb19df747ecd22075f5cf
gd78-04-16d3t04.flac:80282d7507e651b31673b0edb6a0c8cf
72146fde16974c5793d4f5c0f1ca49cc *gd78-04-16d1t01.flac
761d43ef1da6dcb3bf905f4fc56019de *gd78-04-16d1t02.flac
0b5cc0ecea20b049f2bed6e46a2306e3 *gd78-04-16d1t03.flac
20fc8bd82d5f984839d265988bca3a72 *gd78-04-16d1t04.flac
ba941ce3810590a4f9028fef88166286 *gd78-04-16d1t05.flac
39fa80e07d9751d55c395bf0dbd5a9b9 *gd78-04-16d1t06.flac
e77d2febee0e5c34ee2b837e9e055db8 *gd78-04-16d1t07.flac
30978a69e14569861861608fd7ff2b19 *gd78-04-16d1t08.flac
392039d5ae437a8f6cffff167af80967 *gd78-04-16d1t09.flac
7b548de9201ae0a69a809ea7b087277a *gd78-04-16d1t10.flac
749eb24635eb1eb6ad1ab6f4b54e1e17 *gd78-04-16d1t11.flac
2f95409459aac58cd47c8c6d844028c2 *gd78-04-16d2t01.flac
5e3c1c59fe61e386e537d560d229270b *gd78-04-16d2t02.flac
68856ea07ea7bcf250f26d7462de8485 *gd78-04-16d2t03.flac
120bbb21feaec1d654de7c3f64d21486 *gd78-04-16d2t04.flac
9916162d3de57f14eab7ab2e11cf10bc *gd78-04-16d2t05.flac
b037f6972ce7022d702940c23363dccc *gd78-04-16d2t06.flac
63835c5f45f167e17d707655e67bc3bb *gd78-04-16d3t01.flac
9f9c848286c07ddb99098d8dc2368a73 *gd78-04-16d3t02.flac
176ab99aad19cf91357a6e766166a32a *gd78-04-16d3t03.flac
7cff3785161141f2c8c273f9074e6bff *gd78-04-16d3t04.flac

Comments
etreedb.org
For administrative requests email contact@etreedb.org
This website written by Tom H Anderson and maintained by the etreedb.org community.

Cached: Wed, 18 Sep 2019 12:32:24 EDT