Grateful Dead 01/14/78
Bakersfield Memorial Auditorium, Bakersfield, CA
Source Summary
flac16; Source: Unknown Audience recording, believed to be a 3rd gen cass Transfer: cass > Nakamichi DR-1 > Tascam HD-P2 > wav 24/96 > Adobe Audition > Wavelab(with iZotope Ozone 4) > iZotope RX Advanced > wav 16/44.1 > CD Wave > TLH > Flac16
Grateful Dead
Bakersfield Civic Auditorium
Bakersfield, CA
01/14/1978

Source: Unknown Audience recording, believed to be a 3rd gen cass
Transfer: cass > Nakamichi DR-1 > Tascam HD-P2 > wav 24/96 > Adobe Audition > Wavelab(with iZotope Ozone 4) >
                 iZotope RX Advanced  > wav 16/44.1 > CD Wave > TLH > Flac16


Disc 1
set I

01   tuning/banter
02   Jack Straw
03   Dire Wolf
04   Cassidy
05   They Love Each Other
06   Mama Tried >
07   Me And My Uncle
08   Loser
09   Looks Like Rain
10   Deal
11   Let It Grow


Disc 2
set II

01   Samson And Delilah
02   Candyman
03   Estimated Prophet >
04   Eyes Of The World >
05   Space >
06   Not Fade Away >
07   One More Saturday Night
08   Phil's announcement regarding the arrest of their soundman




Notes:

- this copy originates from the same recording as shnid 88091 but is a significant upgrade.
- Most tracks needed some speed correction.
- the tape was paused between most tracks, these have been crossfaded.
- cut  in Candyman 2:23 - 3:52, patched with shnid 16114.
- the are small instances of wow and flutter in Samson, Estimated, Eyes and OMSN.

Comments:

Many thanks to Jim for searching this one out

Garcia's voice was in bad shape, he was recovering from laryngitis

The show was cut short due to the soundman, in charge of the PA, being arrested by the Bakersfield Police

---------------------------------------------------------

- Tapes provided by Jim Richardson

- Transferred by Brion Green

- Edited by SIRMick

- First seeded to www.shnflac.net  May 2009

- Brought To You By Live Music Preservation Project

- contact lmpp.productions@gmail.com

- www.livemusicpreservationproject.com

-----------------------------------------------------------

Shntool output:

    length     expanded size    cdr  WAVE problems  fmt   ratio  filename
     0:31.48        5581340 B   ---   --   ---xx   flac  0.5759  gd1978-01-14d1t01.flac
     6:25.63       68062220 B   ---   --   ---xx   flac  0.6235  gd1978-01-14d1t02.flac
     4:23.38       46482620 B   ---   --   ---xx   flac  0.6105  gd1978-01-14d1t03.flac
     5:17.28       55984700 B   ---   --   ---xx   flac  0.6113  gd1978-01-14d1t04.flac
     7:36.52       80560748 B   ---   --   ---xx   flac  0.5937  gd1978-01-14d1t05.flac
     2:42.59       28715612 B   ---   --   ---xx   flac  0.6065  gd1978-01-14d1t06.flac
     3:37.68       38438780 B   ---   --   ---xx   flac  0.5980  gd1978-01-14d1t07.flac
     7:49.24       82788092 B   ---   --   ---xx   flac  0.5867  gd1978-01-14d1t08.flac
     7:47.63       82527020 B   ---   --   ---xx   flac  0.5875  gd1978-01-14d1t09.flac
     6:16.73       66498140 B   ---   --   ---xx   flac  0.5912  gd1978-01-14d1t10.flac
    12:26.43      131695580 B   ---   --   ---xx   flac  0.5827  gd1978-01-14d1t11.flac
     8:22.24       88609292 B   ---   --   ---xx   flac  0.5961  gd1978-01-14d2t01.flac
     8:21.67       88534028 B   ---   --   ---xx   flac  0.5753  gd1978-01-14d2t02.flac
    12:27.18      131813180 B   ---   --   ---xx   flac  0.6130  gd1978-01-14d2t03.flac
    14:40.32      155307308 B   ---   --   ---xx   flac  0.6095  gd1978-01-14d2t04.flac
     5:53.53       62393900 B   ---   --   ---xx   flac  0.6118  gd1978-01-14d2t05.flac
    14:57.43      158331980 B   ---   --   ---xx   flac  0.6011  gd1978-01-14d2t06.flac
     5:14.41       55486076 B   ---   --   ---xx   flac  0.6016  gd1978-01-14d2t07.flac
     0:43.07        7601708 B   ---   --   ---xx   flac  0.5510  gd1978-01-14d2t08.flac
   135:37.19     1435412324 B                            0.5989  (19 files)

ffp
gd1978-01-14d1t01.flac:7f4bc914162a8ed5ce8057eefd513b7b
gd1978-01-14d1t02.flac:6eeb9ea9f5577fc65359bca477bfb3b3
gd1978-01-14d1t03.flac:248491e3734508852567e48dcd42b006
gd1978-01-14d1t04.flac:2cf4f83c52ec04c1826b71a227e65e57
gd1978-01-14d1t05.flac:b777e116988302f20ddf16e10236e12b
gd1978-01-14d1t06.flac:0a5f574a3ee418e0d14e404b7668dd50
gd1978-01-14d1t07.flac:9a2f7a81a36dee81b96caab92ed74bdd
gd1978-01-14d1t08.flac:16919e4c9457d84669735b6d2be78b04
gd1978-01-14d1t09.flac:bee7e8ec75701ff2d692d6b1d24b77d8
gd1978-01-14d1t10.flac:6366b9c5b8b38e92cad864a3ab6fb250
gd1978-01-14d1t11.flac:f53cb5c2d0258591bebcb1a639efa408
gd1978-01-14d2t01.flac:cd0638047fe0ef1fcc362d718cab921e
gd1978-01-14d2t02.flac:9deb69c99c6f3f33e6ac61c177c65f4b
gd1978-01-14d2t03.flac:25059a564ed57369071488ed3edc9a16
gd1978-01-14d2t04.flac:57d9b33d5190ee828e7e03ed62317e70
gd1978-01-14d2t05.flac:51d22e96669b1b5e74d360080e8e2832
gd1978-01-14d2t06.flac:2914343d02f5ca93bb583756bd7ddba2
gd1978-01-14d2t07.flac:8543cb5e5e129d27fd80651fe1f95bfe
gd1978-01-14d2t08.flac:6feeb055039f126d02ff5d9528bdef7d
f46243ce4c3c662756bd5fbc2e611824 *gd1978-01-14d1t01.flac
39ef18f313899c307c0fb2444b2f6304 *gd1978-01-14d1t02.flac
0f1f07e416baef844689210a3862ea90 *gd1978-01-14d1t03.flac
344226036e51e040703944bca06c1521 *gd1978-01-14d1t04.flac
03781522f1fac3cc84dd688c20d8e1d7 *gd1978-01-14d1t05.flac
0ac152f3464c94f5242646314e72fc96 *gd1978-01-14d1t06.flac
e2889facdd527687854152fb27aad0c9 *gd1978-01-14d1t07.flac
1baed807d9a5e78a2217d1ad86948db9 *gd1978-01-14d1t08.flac
3b5c4e99b711640a64e085e7892b1e9d *gd1978-01-14d1t09.flac
a853053590f0a46a231f6fd55ed750a7 *gd1978-01-14d1t10.flac
62951e09c27f1aaea72ba5ae584c7adf *gd1978-01-14d1t11.flac
f17a812053b6f06a78f2309cd6a6aa7c *gd1978-01-14d2t01.flac
5c5042dfea370fba0948eb53821df211 *gd1978-01-14d2t02.flac
92d65c4328a2a79129e86d6ecc248e4a *gd1978-01-14d2t03.flac
3a85f2caa39a604c0854cae2ef572779 *gd1978-01-14d2t04.flac
3836061c53cfcd536d9bd5dc1de7284c *gd1978-01-14d2t05.flac
1315a1d4864cd1f8e949ac852ea7f01b *gd1978-01-14d2t06.flac
56714e9405b875c9023ba77c1b610513 *gd1978-01-14d2t07.flac
0e07908a9e6f9aa87016e09b7dd84822 *gd1978-01-14d2t08.flac

Comments
Other Sources (comments)
SBD> [MR>C ?] >DAT>CDR via... (0) flac16 ; source: aud > ???... (0) flac16 ; 2 x AKG D224E >>... (0) flac16 ; MTX 2 x AKG D224E... (0) flac16 ; Recording Info:... (0) flac24 ; Recording Info:... (0)
Date User Comment
05/22/2009 Grateful Darkstar I forgot to add in the text file that the patch in Candyman is 2:23 - 3:52
05/24/2009 Wharfrat73 updated info file.
etreedb.org
For administrative requests email contact@etreedb.org
This website written by Tom H Anderson and maintained by the etreedb.org community.

Cached: Wed, 16 Oct 2019 17:31:55 EDT