Checksum 'shntool' for Sam Holt & Cameron Williams 10/11/07
length expanded size cdr WAVE problems fmt ratio filename
1:04.43 11390780 B --- -- ----- wav 1.0000 sh+cw2007-10-11d1t01.wav
4:30.36 47712716 B --- -- ----- wav 1.0000 sh+cw2007-10-11d1t02.wav
9:47.31 103619756 B --- -- ----- wav 1.0000 sh+cw2007-10-11d1t03.wav
9:15.72 98071388 B --- -- ----- wav 1.0000 sh+cw2007-10-11d1t04.wav
6:38.21 70256636 B --- -- ----- wav 1.0000 sh+cw2007-10-11d1t05.wav
1:14.48 13166540 B --- -- ----- wav 1.0000 sh+cw2007-10-11d1t06.wav
6:54.21 73079036 B --- -- ----- wav 1.0000 sh+cw2007-10-11d1t07.wav
7:27.54 78977852 B --- -- ----- wav 1.0000 sh+cw2007-10-11d1t08.wav
4:23.25 46452044 B --- -- ----- wav 1.0000 sh+cw2007-10-11d1t09.wav
3:57.09 41828012 B --- -- ----- wav 1.0000 sh+cw2007-10-11d1t10.wav
4:17.29 45403052 B --- -- ----- wav 1.0000 sh+cw2007-10-11d1t11.wav
4:17.11 45360716 B --- -- ----- wav 1.0000 sh+cw2007-10-11d1t12.wav
1:29.67 15857228 B --- -- ----- wav 1.0000 sh+cw2007-10-11d2t01.wav
5:36.00 59270444 B --- -- ----- wav 1.0000 sh+cw2007-10-11d2t02.wav
4:58.04 52576652 B --- -- ----- wav 1.0000 sh+cw2007-10-11d2t03.wav
10:57.56 116026556 B --- -- ----- wav 1.0000 sh+cw2007-10-11d2t04.wav
6:24.69 67899932 B --- -- ----- wav 1.0000 sh+cw2007-10-11d2t05.wav
9:21.11 98986316 B --- -- ----- wav 1.0000 sh+cw2007-10-11d2t06.wav
2:01.18 21386780 B --- -- ----- wav 1.0000 sh+cw2007-10-11d2t07.wav
6:57.57 73692908 B --- -- ----- wav 1.0000 sh+cw2007-10-11d2t08.wav
8:04.13 85408220 B --- -- ----- wav 1.0000 sh+cw2007-10-11d2t09.wav
1:12.67 12858428 B --- -- ----- wav 1.0000 sh+cw2007-10-11d3t01.wav
3:29.35 36949964 B --- -- ----- wav 1.0000 sh+cw2007-10-11d3t02.wav
5:17.37 56005868 B --- -- ----- wav 1.0000 sh+cw2007-10-11d3t03.wav
4:03.48 42978140 B --- -- ----- wav 1.0000 sh+cw2007-10-11d3t04.wav
6:23.60 67702364 B --- -- ----- wav 1.0000 sh+cw2007-10-11d3t05.wav
3:33.66 37728476 B --- -- ----- wav 1.0000 sh+cw2007-10-11d3t06.wav
9:31.25 100783244 B --- -- ----- wav 1.0000 sh+cw2007-10-11d3t07.wav
5:18.02 56099948 B --- -- ----- wav 1.0000 sh+cw2007-10-11d3t08.wav
158:29.60 1677529996 B 1.0000 (29 files)
etreedb.org
For administrative requests email contact@etreedb.org
This website written by Tom H Anderson and maintained by the etreedb.org community.

Cached: Thu, 18 Jul 2024 10:16:43 EDT