Source # 102474
Entered by Mark Goldey
Checksums ffp
Disc Counts 0 / 0
Media Size
Date Circulated
Date Added
08/27/08
11/11/2009
Download Text | Download Zip
Other Sources
Source Summary
Recording Info: SBD -> Dat -> Dat
Transfer Info: Dat clone @ 48k Sony D-8 > coax > audiophile 24/96 -> Soundforge 4.5 (record/edit, resample)>CDWav > flac level 8
Transfer and Mastering By obaaron
George Clinton & The P-Funk Allstars
San Jose, Ca.
"Private Party"
March 17, 1999

Recording Info:
SBD -> Dat -> Dat

Transfer Info:
Dat clone @ 48k Sony D-8 > coax > audiophile 24/96 -> Soundforge 4.5 (record/edit, resample)>
CDWav > flac level 8

Transfer and Mastering By obaaron
March 28, 2007

Disc 1:
d1t01 - ...Help Scotty, help (I'm tweeking and I can't beam up) >
d1t02 - Jam.. >
d1t03 - ..P-Funk jam >
d1t04 - George banter >
d1t05 - Standing on the Verge >
d1t06 - Pumpin' it up >
d1t07 - Standing on the verge >
d1t08 - Tear the roof off..

Disc 2:
d2t01 - Flashlight >
d2t02 - Knee deep >
d2t03 - Sentimental journey >
d2t04 - Knee deep >
d2t05 - Free your mind >
d2t06 - Somethin' stinks >
d2t07 - Booty >
d2t08 - George rap >
d2t09 - Maggot brain >
d2t10 - Jam >
d2t11 - Fly on (dog star)//..



  length     expanded size   cdr  WAVE problems filename
     8:38.00       91375244    ---   --   ---xx   pfunk1999-03-17d1t01.flac
     6:35.07       69694508    ---   --   ---xx   pfunk1999-03-17d1t02.flac
    11:54.60      126090764    ---   --   ---xx   pfunk1999-03-17d1t03.flac
     1:16.56       13538156    ---   --   ---xx   pfunk1999-03-17d1t04.flac
     6:00.29       63572252    ---   --   ---xx   pfunk1999-03-17d1t05.flac
     3:24.73       36157340    ---   --   ---xx   pfunk1999-03-17d1t06.flac
    13:02.40      138038924    ---   --   ---xx   pfunk1999-03-17d1t07.flac
     6:59.47       74022188    ---   --   ---xx   pfunk1999-03-17d1t08.flac
    11:10.00      118188044    ---   --   ---xx   pfunk1999-03-17d2t01.flac
    14:25.04      152595452    ---   --   ---xx   pfunk1999-03-17d2t02.flac
     4:34.00       48333644    ---   --   ---xx   pfunk1999-03-17d2t03.flac
     6:31.65       69125324    ---   --   ---xx   pfunk1999-03-17d2t04.flac
     1:14.07       13070108    ---   --   ---xx   pfunk1999-03-17d2t05.flac
     4:15.50       45099644    ---   --   ---xx   pfunk1999-03-17d2t06.flac
     7:56.21       84015836    ---   --   ---xx   pfunk1999-03-17d2t07.flac
     2:12.39       23376572    ---   --   ---xx   pfunk1999-03-17d2t08.flac
    11:54.52      126071948    ---   --   ---xx   pfunk1999-03-17d2t09.flac
     1:57.24       20695292    ---   --   ---xx   pfunk1999-03-17d2t10.flac
     6:28.43       68544380    ---   --   ---xx   pfunk1999-03-17d2t11.flac
   130:32.17     1381605620 B                     (totals for 19 files, 0.4450 overall compression ratio)



ffp
pfunk1999-03-17d1t01.flac:99b1077f521af42b79324ac64510b47a
pfunk1999-03-17d1t02.flac:2bd670ec4cf944ec50b591f12ff0b989
pfunk1999-03-17d1t03.flac:66b4f0d144d0c4b4851549ada41b1965
pfunk1999-03-17d1t04.flac:2ebf1a120575f6a5a20d22a9a2d83b92
pfunk1999-03-17d1t05.flac:f3c1fb27d7e5bd51dae32094ddd4d92f
pfunk1999-03-17d1t06.flac:b33a00eafda1f1f19da3e6c9950c990c
pfunk1999-03-17d1t07.flac:26d2a077dfce10937ceef5d6f576a85a
pfunk1999-03-17d1t08.flac:ef8b31a6166df4e3fb162507ef5f9b74
pfunk1999-03-17d2t01.flac:1cdee8c1491504da627ae7fa89141416
pfunk1999-03-17d2t02.flac:5a1476b7ef3f0bbde26a064171f67747
pfunk1999-03-17d2t03.flac:111b444f67af4889cc611b010cf1bbbd
pfunk1999-03-17d2t04.flac:c221f3d8622d2b8d40ff34887265ff31
pfunk1999-03-17d2t05.flac:9944af18fd5e2ddfa4be6907abb8206c
pfunk1999-03-17d2t06.flac:154c2cfd7c1298530468d28b2580fc16
pfunk1999-03-17d2t07.flac:3153ce3f0db0facbd8a44398a6f4bd3f
pfunk1999-03-17d2t08.flac:6345008713bf4a4373994d43cbc2d2be
pfunk1999-03-17d2t09.flac:958b452c7f1ab728569d22c954a0cc9f
pfunk1999-03-17d2t10.flac:accf27dcf08dc7442d74adc31fed7d2e
pfunk1999-03-17d2t11.flac:44782ebd6f6da403524a4784fb16c599

Comments
Date User Comment
etreedb.org
For administrative requests email contact@etreedb.org
This website written by Tom H Anderson and maintained by the etreedb.org community.

Cached: Fri, 22 Jan 2021 01:30:37 EST