Hill Country Revue 04/17/10
Wanee Music Festival, Live Oak, FL
Source Summary
flac16: Schoeps CCM4V'S(din)> Lunatec V2> Benchmark AD2K> Sound Devices 722 (24/48)
Hill Country Revue
Wanee Music Festival
Peach Stage
Live Oak, Florida
4/17/2010

Source: Schoeps CCM4V'S(din)>Lunatec V2>Benchmark AD2K>
Sound Devices 722 (24/48)
FOB/DFC/KFC/ZFC/AARP 70' From Stage, 7' High
DSP: Sound Devices 722>Sound Forge 9.0>CD Wave>flac(16)
Recorded By: Z-Man
Seeded By: Z-Man

Disc I

01 Hill Country Revue >
02 Alice Mae
03 Stand Up And Raise Your Right Hand
04 You Took My Woman >
05 Ramblin'
06 *#Georgia Woman
07 *#You Can Make It >
08 Dirty Shirt >
09 Won't Give Up >
10 Goin' Down

* With Luther Dickinson On Guitar
# With Chris Chew On Bass


Shntool

    length     expanded size    cdr  WAVE problems  fmt   ratio  filename
     7:30.12       79408268 B   ---   --   ---xx   flac  0.5199  hcr2010-04-17d01t01.flac
     5:54.61       62589116 B   ---   --   ---xx   flac  0.5218  hcr2010-04-17d01t02.flac
     3:37.56       38410556 B   ---   --   ---xx   flac  0.5165  hcr2010-04-17d01t03.flac
     5:34.16       58955276 B   ---   --   ---xx   flac  0.5276  hcr2010-04-17d01t04.flac
     5:37.63       59595020 B   ---   --   ---xx   flac  0.4931  hcr2010-04-17d01t05.flac
    10:28.06      110793356 B   ---   --   ---xx   flac  0.4850  hcr2010-04-17d01t06.flac
     8:02.29       85093052 B   ---   --   ---xx   flac  0.4434  hcr2010-04-17d01t07.flac
     3:34.51       37869596 B   ---   --   ---xx   flac  0.5191  hcr2010-04-17d01t08.flac
     5:39.44       59903132 B   ---   --   ---xx   flac  0.5133  hcr2010-04-17d01t09.flac
     3:44.64       39664172 B   ---   --   ---xx   flac  0.5166  hcr2010-04-17d01t10.flac
    59:44.27      632281544 B                            0.5008  (10 files)

ffp
hcr2010-04-17d01t01.flac:7eb1b9b7c65f7bf6e41ee298deab4cc3
hcr2010-04-17d01t02.flac:420e5c63a4949be133318b463b1036d4
hcr2010-04-17d01t03.flac:c45bab44a0d84cc50321958dabe0cc66
hcr2010-04-17d01t04.flac:148ecc59fe3a62d3318b1f615bb329db
hcr2010-04-17d01t05.flac:647dd8913d0bd9d622ffcaf1299505b0
hcr2010-04-17d01t06.flac:37ae07ced5dd1748104fdad7226f9faf
hcr2010-04-17d01t07.flac:6ae18c3ee2f1d768016418d9787a2b03
hcr2010-04-17d01t08.flac:6404b35f726c80032f4371d41a7f423a
hcr2010-04-17d01t09.flac:2b8cabe0487efd3f7848cee765e0d09b
hcr2010-04-17d01t10.flac:092f4622e42ca275bc0aaf34cbc3a757

Comments
Other Sources (comments)
flac16 : MT II via... (0) flac16 : 4 mic matrix... (0) flac16 : Schoeps ccm 41's... (0)
Date User Comment
etreedb.org
For administrative requests email contact@etreedb.org
This website written by Tom H Anderson and maintained by the etreedb.org community.

Cached: Thu, 3 Dec 2020 05:32:25 EST