Grateful Dead 05/05/78
Thompson Arena, Dartmouth College, Hanover, NH
Source Summary
flac16; Recording Info: SBD -> Reel Master -> Dat -> Data DVD; Transfer Info: Data DVD -> Samplitude Professional v11.2 -> FLAC; All Transfers and Mastering By Charlie Miller
Grateful Dead - May 5, 1978
Thompson Arena - Hanover, NH

Recording Info:
SBD -> Reel Master -> Dat -> Data DVD

Transfer Info:
Data DVD -> Samplitude Professional v11.2 -> FLAC
(3 Discs Audio / 2 Discs FLAC)

All Transfers and Mastering By Charlie Miller
charliemiller87@earthlink.net
February 28, 2011

Patch Info:
(FOB) Nakamichi 300/CP1 -> Cassette Master -> Dat supplies:
Eyes Of The World (11:08 - 11:25)

Notes:
-- Set 2 is seamless
-- Thanks to David Gans for the recording

Set 1:
d1t01 - Tuning
d1t02 - Promised Land
d1t03 - Dire Wolf
d1t04 - Cassidy
d1t05 - Candyman
d1t06 - El Paso
d1t07 - They Love Each Other
d1t08 - Passenger
d1t09 - Brown Eyed Women
d1t10 - Lazy Lightnin' ->
d1t11 - Supplication

Set 2:
d2t01 - Bertha ->
d2t02 - Good Lovin'
d2t03 - Ship Of Fools
d2t04 - Estimated Prophet ->
d2t05 - Eyes Of The World ->
d2t06 - Drums ->
d3t01 - Space ->
d3t02 - Not Fade Away ->
d3t03 - Stella Blue ->
d3t04 - Around And Around

Encore:
d3t05 - Werewolves Of London


SHNTOOL OUTPUT:
    length     expanded size   cdr  WAVE problems filename
     2:31.50       26754044    ---   --   -----   gd78-05-05d1t01.wav
     5:21.35       56706764    ---   --   -----   gd78-05-05d1t02.wav
     5:30.63       58360220    ---   --   -----   gd78-05-05d1t03.wav
     5:58.34       63231212    ---   --   -----   gd78-05-05d1t04.wav
     8:58.14       94936172    ---   --   -----   gd78-05-05d1t05.wav
     5:18.74       56269292    ---   --   -----   gd78-05-05d1t06.wav
     7:47.57       82512908    ---   --   -----   gd78-05-05d1t07.wav
     5:58.25       63210044    ---   --   -----   gd78-05-05d1t08.wav
     6:25.33       67991660    ---   --   -----   gd78-05-05d1t09.wav
     3:38.09       38476412    ---   --   -----   gd78-05-05d1t10.wav
     5:47.16       61248476    ---   --   -----   gd78-05-05d1t11.wav
     7:21.44       77895932    ---   --   -----   gd78-05-05d2t01.wav
     6:57.30       73629404    ---   --   -----   gd78-05-05d2t02.wav
    10:51.54      114963452    ---   --   -----   gd78-05-05d2t03.wav
    12:04.73      127885340    ---   --   -----   gd78-05-05d2t04.wav
    12:14.46      129585836    ---   --   -----   gd78-05-05d2t05.wav
    16:32.19      175033532    ---   --   -----   gd78-05-05d2t06.wav
     3:41.58       39120860    ---   --   -----   gd78-05-05d3t01.wav
    10:56.21      115767836    ---   --   -----   gd78-05-05d3t02.wav
     9:57.69      105473132    ---   --   -----   gd78-05-05d3t03.wav
     9:39.18      102177980    ---   --   -----   gd78-05-05d3t04.wav
     8:26.24       89314892    ---   --   -----   gd78-05-05d3t05.wav
   172:00.41     1820545400 B                     (totals for 22 files)
ffp
gd78-05-05d1t01.flac:2cc1a815bdefbd7260eb39a2aa0dabf8
gd78-05-05d1t02.flac:5ca4b64a6907bad7fdc05dd292177196
gd78-05-05d1t03.flac:95e9e02f68544f680980e6c84ca8929c
gd78-05-05d1t04.flac:0b1817e97f0c8dbb47ff0cd178d7cb73
gd78-05-05d1t05.flac:d3cc27c7a5670b814f59dcd3a449216a
gd78-05-05d1t06.flac:2d2639fb22abda4333ad2a7727768700
gd78-05-05d1t07.flac:47a8a7a58109ad403c2edb4060d7e760
gd78-05-05d1t08.flac:d925cb79196f404045f0250cb99a6bca
gd78-05-05d1t09.flac:873332ddb4791af76313c1045bb8850a
gd78-05-05d1t10.flac:61fb36e19763dd9e8a42d2cd384fe2f1
gd78-05-05d1t11.flac:67efae3e1757db17c5ff821d309c820e
gd78-05-05d2t01.flac:964eae349f55e5f908ba92978875af21
gd78-05-05d2t02.flac:5c7991fbfdf2688fd0041e6684cb431a
gd78-05-05d2t03.flac:30a9147708542cd31ecafe5fc019bd50
gd78-05-05d2t04.flac:8c44f5a6298a23094e90addd9ea1207d
gd78-05-05d2t05.flac:e4a8ea7547898db98b1ff09b2733df7d
gd78-05-05d2t06.flac:4436057f1eb70841ea19cbde16f65eb2
gd78-05-05d3t01.flac:94a1801c1bd1f074937ea4b9f4e2f786
gd78-05-05d3t02.flac:32e78d2959c49a0ac6d3295b696d7a52
gd78-05-05d3t03.flac:9dc925db426403c8cab2657b27c6eb91
gd78-05-05d3t04.flac:abf30319c70623dd4978067bf70edd59
gd78-05-05d3t05.flac:170df6efea349f1c0c2361f249dc921c
069bffa27fcecdef20320ecff629edc5 *gd78-05-05d1t01.flac
20b28504172c6aa2b326740e9443ea0c *gd78-05-05d1t02.flac
95585273b86c667a6735fef6203e6bc2 *gd78-05-05d1t03.flac
0d1f211be9915186979db85c72d67549 *gd78-05-05d1t04.flac
c0eb318d6b00b5930104e54ec747843a *gd78-05-05d1t05.flac
de4f680f53ed6042932fffdb3ffcbf15 *gd78-05-05d1t06.flac
03304dbb817d7cbdb940414518b4fd56 *gd78-05-05d1t07.flac
1e82505975eb0684ebff5705b6648721 *gd78-05-05d1t08.flac
9b649488ea2e7e7d274006c626b3eb00 *gd78-05-05d1t09.flac
9e192dedb0642e116f7dd0e374f130a5 *gd78-05-05d1t10.flac
cc38050ac96250608c738f67050681dd *gd78-05-05d1t11.flac
e4461423492283dc71d7f0539e38bc96 *gd78-05-05d2t01.flac
89582d828be207c26a32c05c163fc1b2 *gd78-05-05d2t02.flac
8ee0b92f39d46e4de87247138e629751 *gd78-05-05d2t03.flac
61c30225a37b98b71a555d23ef0fc0ea *gd78-05-05d2t04.flac
2208f51267fe13919ea44c04922228a3 *gd78-05-05d2t05.flac
5c0e4b9ce2e211279af5c5287cbca960 *gd78-05-05d2t06.flac
49e9c9135652bf590b7f21cb8f5d2296 *gd78-05-05d3t01.flac
911699930f4b13cb531acff13724aa71 *gd78-05-05d3t02.flac
8b9c6615084c24319ad6823d525232ff *gd78-05-05d3t03.flac
c085466fb83f370ea05d47ee8bf95965 *gd78-05-05d3t04.flac
842132b6340cabd36ff3a161110692c7 *gd78-05-05d3t05.flac

Comments
etreedb.org
For administrative requests email contact@etreedb.org
This website written by Tom H Anderson and maintained by the etreedb.org community.

Cached: Sat, 19 Oct 2019 16:49:13 EDT