David Gans 08/13/11
Lincoln Park, Laurelton, PA
Source # 118408
Entered by Mark Goldey
Checksums ffp , md5
Disc Counts 1 / 1
Media Size
Date Circulated
Date Added

01/24/2012
Download Text | Download Zip
Other Sources
Source Summary
Source: Soundboard recording > Edirol R-09HR > wav 24/48
Lineage: wav 24/48 > Adobe Audition 1.5 > Wavelab 6 (with iZotope Ozone 5 Advanced) > iZotope RX 2 Advanced > Cd Wave > TLH > Flac 16
David Gans
6th Annual "A Bear's Picnic"
Lincoln Park,
Laurelton, PA
08/13/2011

Source: Soundboard recording > Edirol R-09HR > wav 24/48
Lineage: wav 24/48 > Adobe Audition 1.5 > Wavelab 6 (with iZotope Ozone 5 Advanced) >
             iZotope RX 2 Advanced > Cd Wave > TLH > Flac 16


Recorded by John Bleich


01   tuning/intro
02   Shove In The Right Direction
03   Therapy Blues
04   Gommorah
05   Lazy River Road
06   Down To Eugene
07   Quarter To Five
08   Life Is a Jam >
09   Norwegian Wood
10   Loser
11   It's Gonna Get Better
12   Lady With A Fan >
13  Terrapin Station >
14   River and Drown




Notes:

Around 2:20 was missing from "Therapy Blues", David Gans kindly sent me his recording so that I could patch it.


Many thanks to John for this recording and David for his help.


edited and mastered
SIRMick
January 2012


shntool output:

    length     expanded size    cdr  WAVE problems  fmt   ratio  filename
     0:27.32        4838108 B   ---   --   ---xx   flac  0.3543  dgans2011-08-13t01.flac
     3:52.36       41009516 B   ---   --   ---xx   flac  0.4803  dgans2011-08-13t02.flac
     3:26.61       36481916 B   ---   --   ---xx   flac  0.4909  dgans2011-08-13t03.flac
     7:04.19       74838332 B   ---   --   ---xx   flac  0.4342  dgans2011-08-13t04.flac
     6:43.44       71192732 B   ---   --   ---xx   flac  0.4040  dgans2011-08-13t05.flac
     6:02.01       63859196 B   ---   --   ---xx   flac  0.4401  dgans2011-08-13t06.flac
     5:06.06       53992556 B   ---   --   ---xx   flac  0.4401  dgans2011-08-13t07.flac
     3:24.52       36107948 B   ---   --   ---xx   flac  0.5114  dgans2011-08-13t08.flac
     6:07.50       64856444 B   ---   --   ---xx   flac  0.3935  dgans2011-08-13t09.flac
     8:46.74       92960492 B   ---   --   ---xx   flac  0.4027  dgans2011-08-13t10.flac
     4:16.70       45323084 B   ---   --   ---xx   flac  0.4525  dgans2011-08-13t11.flac
     5:52.20       62139884 B   ---   --   ---xx   flac  0.4296  dgans2011-08-13t12.flac
     1:40.29       17708252 B   ---   --   ---xx   flac  0.4526  dgans2011-08-13t13.flac
     5:38.00       59623244 B   ---   --   ---xx   flac  0.4853  dgans2011-08-13t14.flac
    68:29.44      724931704 B                            0.4387  (14 files)

flac fingerprints:

dgans2011-08-13t01.flac:3f28003151c6d94ca0bdf8e082f973a6
dgans2011-08-13t02.flac:8ddde48aeca2f4be15e3753edfe9f1c9
dgans2011-08-13t03.flac:384dce348e48fc4e55c3d3e5543ad4e2
dgans2011-08-13t04.flac:dce5e1251b4c61a6350791dd522e25c9
dgans2011-08-13t05.flac:443e4ce483e55a2dacb394d822ac696b
dgans2011-08-13t06.flac:99e5e50042a776bc554f4968c3a3351c
dgans2011-08-13t07.flac:2f261d6975d37ed6f5ee3ad04eb17cba
dgans2011-08-13t08.flac:d5aa970dfd4267db65524c89084c5668
dgans2011-08-13t09.flac:cb461cfedb9393842d51386f112a5cd0
dgans2011-08-13t10.flac:5821922aa72ca0ec3587f36b1911b4f7
dgans2011-08-13t11.flac:05c77711ba302cf4c49a07e8eed9fcef
dgans2011-08-13t12.flac:43a26d366aba5ce01f101e3254775c54
dgans2011-08-13t13.flac:8c5de73c38be91f5c2927adf1d7a13ea
dgans2011-08-13t14.flac:f3dd6a8342beacd2600da02128cd8421
ffp
dgans2011-08-13t01.flac:3f28003151c6d94ca0bdf8e082f973a6
dgans2011-08-13t02.flac:8ddde48aeca2f4be15e3753edfe9f1c9
dgans2011-08-13t03.flac:384dce348e48fc4e55c3d3e5543ad4e2
dgans2011-08-13t04.flac:dce5e1251b4c61a6350791dd522e25c9
dgans2011-08-13t05.flac:443e4ce483e55a2dacb394d822ac696b
dgans2011-08-13t06.flac:99e5e50042a776bc554f4968c3a3351c
dgans2011-08-13t07.flac:2f261d6975d37ed6f5ee3ad04eb17cba
dgans2011-08-13t08.flac:d5aa970dfd4267db65524c89084c5668
dgans2011-08-13t09.flac:cb461cfedb9393842d51386f112a5cd0
dgans2011-08-13t10.flac:5821922aa72ca0ec3587f36b1911b4f7
dgans2011-08-13t11.flac:05c77711ba302cf4c49a07e8eed9fcef
dgans2011-08-13t12.flac:43a26d366aba5ce01f101e3254775c54
dgans2011-08-13t13.flac:8c5de73c38be91f5c2927adf1d7a13ea
dgans2011-08-13t14.flac:f3dd6a8342beacd2600da02128cd8421
md5
fc29a3300c190b524bc0b5d8db3251f9 *dgans2011-08-13t01.flac
d2005b954ba859dff2f712779ed4f817 *dgans2011-08-13t02.flac
c04cb3be0f41d280af7a9607545df0e2 *dgans2011-08-13t03.flac
c17318301cdc929c2738b3cfeceb9530 *dgans2011-08-13t04.flac
b755e11461c877c441faeb0197fb69fe *dgans2011-08-13t05.flac
ac3064c4d50657f8cfd4bca2dd989004 *dgans2011-08-13t06.flac
9d87d8008cb0451bee40d5f73d5646b0 *dgans2011-08-13t07.flac
6bd5b8979cbd367b0a529a83b1dd65c3 *dgans2011-08-13t08.flac
c547bc2774437f2f9a3818a4ee028d8f *dgans2011-08-13t09.flac
f4110808e8f28e1fd8c1584c9448034a *dgans2011-08-13t10.flac
efcf8d5769402eade23cc85253818c38 *dgans2011-08-13t11.flac
39d5fc8d1f711499515245f12a45746c *dgans2011-08-13t12.flac
55afeec7f82f8cbca85e772c56a87bba *dgans2011-08-13t13.flac
e1dd345e7576d146a551572e1f232d8a *dgans2011-08-13t14.flac

Comments
Date User Comment
etreedb.org
For administrative requests email contact@etreedb.org
This website written by Tom H Anderson and maintained by the etreedb.org community.

Cached: Wed, 12 Jun 2024 15:15:48 EDT