Grateful Dead 01/31/78
Uptown Theater, Chicago, IL
Source Summary
flac16; Recording Info: SBD -> Master Reel -> Dat -> CD; Transfer Info: CD -> Adobe Audition v3.0 -> Samplitude Professional v11.2.1 -> FLAC; All Mastering By Charlie Miller
Grateful Dead - January 31, 1978
Uptown Theatre - Chicago, IL

Recording Info:
SBD -> Master Reel -> Dat -> CD

Transfer Info:
CD -> Adobe Audition v3.0 -> Samplitude Professional v11.2.1 -> FLAC
(3 Discs Audio / 1 DVD FLAC)

All Mastering By Charlie Miller
charliemiller87@earthlink.net
December 6, 2012

Patch Info:
Unknown Mics -> Cassette Master -> Reel -> CD (shnid=17807) supplies:
Candyman (complete track)
New Minglewood Blues (0:00 - 0:03)
Playing In The Band (0:55 - 1:14)
Black Peter (6:57 - 7:17)

Notes:
-- Thanks to Jim Wise for the discs
-- Thanks to Joe B. Jones for his help with the pitch correction

Set 1:
d1t01 - Mississippi Half-Step Uptown Toodeloo
d1t02 - Passenger
d1t03 - Tennessee Jed
d1t04 - El Paso
d1t05 - Candyman
d1t06 - New Minglewood Blues
d1t07 - They Love Each Other
d1t08 - Let It Grow

Set 2:
d2t01 - Scarlet Begonias ->
d2t02 - Fire On The Mountain
d2t03 - Samson And Delilah
d2t04 - Terrapin Station ->
d2t05 - Playing In The Band ->
d2t06 - Drums -> Space ->
d3t01 - Black Peter ->
d3t02 - Truckin' ->
d3t03 - Good Lovin'


SHNTOOL OUTPUT:
    length     expanded size    cdr  WAVE problems  fmt   ratio  filename
    12:16.50      129948044 B   ---   --   ---xx   flac  0.5395  gd78-01-31d1t01.flac
     7:21.54       77919452 B   ---   --   ---xx   flac  0.5385  gd78-01-31d1t02.flac
     9:45.47      103304588 B   ---   --   ---xx   flac  0.5341  gd78-01-31d1t03.flac
     4:33.00       48157244 B   ---   --   ---xx   flac  0.5456  gd78-01-31d1t04.flac
     8:12.51       86908796 B   ---   --   ---xx   flac  0.4557  gd78-01-31d1t05.flac
     5:23.02       56981948 B   ---   --   ---xx   flac  0.5700  gd78-01-31d1t06.flac
     7:40.23       81198140 B   ---   --   ---xx   flac  0.5089  gd78-01-31d1t07.flac
    12:34.14      133038572 B   ---   --   ---xx   flac  0.5581  gd78-01-31d1t08.flac
    12:05.51      128009996 B   ---   --   ---xx   flac  0.5740  gd78-01-31d2t01.flac
    10:16.35      108744764 B   ---   --   ---xx   flac  0.5833  gd78-01-31d2t02.flac
     8:45.17       92650028 B   ---   --   ---xx   flac  0.5940  gd78-01-31d2t03.flac
    10:21.12      109572668 B   ---   --   ---xx   flac  0.5571  gd78-01-31d2t04.flac
    10:51.62      114982268 B   ---   --   ---xx   flac  0.5963  gd78-01-31d2t05.flac
     7:35.32       80337308 B   ---   --   ---xx   flac  0.5674  gd78-01-31d2t06.flac
    13:16.27      140477948 B   ---   --   ---xx   flac  0.5398  gd78-01-31d3t01.flac
     8:45.35       92692364 B   ---   --   ---xx   flac  0.5886  gd78-01-31d3t02.flac
     6:53.12       72881468 B   ---   --   ---xx   flac  0.5920  gd78-01-31d3t03.flac
   156:37.74     1657805596 B                            0.5561  (17 files)


ffp
gd78-01-31d1t01.flac:4572862e294114fd1a0df655c344cfd9
gd78-01-31d1t02.flac:7573ec7a8f44979f6f2fa7549a910841
gd78-01-31d1t03.flac:63aab46cd6d63c5b82485d41d8303c18
gd78-01-31d1t04.flac:df62e82fe4dc3700accd67cf8426549f
gd78-01-31d1t05.flac:e2ee7996467af1634610039250daac1a
gd78-01-31d1t06.flac:436fb5986637b6f65c9363f4813cfb2c
gd78-01-31d1t07.flac:76f0647e9d319e82970269d3d5958000
gd78-01-31d1t08.flac:cfde4dbe0458ef08c7545ba7d24f1787
gd78-01-31d2t01.flac:df5ecfd1d91ad90a4818c50d30f62841
gd78-01-31d2t02.flac:ef3b1ef4cb7a8136412ded10024066e9
gd78-01-31d2t03.flac:c753f521b61a3d03cc1d199698b16886
gd78-01-31d2t04.flac:6e63c10a89b998b9278515516a2c4db4
gd78-01-31d2t05.flac:9709e63477a624e03c5363e0c1c31ac6
gd78-01-31d2t06.flac:c7ec711952e741f4f74ad7563889f377
gd78-01-31d3t01.flac:081017150e8927d05dd7481a016f7fec
gd78-01-31d3t02.flac:752c5acf5aa78eefec18e107fbfabe36
gd78-01-31d3t03.flac:a4bec880dda983f8436c8ed014dfc702
a1d657a7b70601b1befffdf14b2c8c8f *gd78-01-31d1t01.flac
2d71e43ef9ca1800a9b7fc8bae937089 *gd78-01-31d1t02.flac
940971c37516886aba9d264f26e0392d *gd78-01-31d1t03.flac
e08de681bd977d4026f74ca0c8ebccbb *gd78-01-31d1t04.flac
de1b495961a3e43f5b784b0454c98be5 *gd78-01-31d1t05.flac
55ca21d113f19991da0e4ff4672a0855 *gd78-01-31d1t06.flac
61a1d59d43ee7e81ae1f84120c862d0a *gd78-01-31d1t07.flac
1df6553b9b9e1c93955937e715ba16da *gd78-01-31d1t08.flac
e09f4af2be4a8bf3101496f903418489 *gd78-01-31d2t01.flac
42b20fec1dbe54719a1f887f4b7f33cf *gd78-01-31d2t02.flac
9124c140be9673a08c225025dba2c72f *gd78-01-31d2t03.flac
f3d6fffd1df7f53611c5bfb36bd2244a *gd78-01-31d2t04.flac
271508f6def7cf4e09486055b3abc341 *gd78-01-31d2t05.flac
f16e1e5ee4ad93219439ec6998b6f841 *gd78-01-31d2t06.flac
07eb75e3662a70bc3dcfee4acec3095d *gd78-01-31d3t01.flac
987b5f19c6ea8875ac24c78ab5722b2a *gd78-01-31d3t02.flac
50f686a037525fce442302e52b41e3dd *gd78-01-31d3t03.flac

Comments
etreedb.org
For administrative requests email contact@etreedb.org
This website written by Tom H Anderson and maintained by the etreedb.org community.

Cached: Sun, 20 Oct 2019 02:40:54 EDT