Grateful Dead 04/21/78
Rupp Arena, University Of Kentucky, Lexington, KY
Source # 123212
Entered by Matt Vernon
Checksums ffp , flac-md5
Disc Counts 0 / 0
Media Size Compressed: 955.98 MB (1002422520 bytes)
Uncompressed: 1.61 GB (1725599864 bytes)
Date Circulated
Date Added
12/25/2012
12/26/2012
Source Summary
flac16; Recording Info: SBD -> Cassette Master -> Dat (44.1k); Transfer Info: Dat (Sony R500) -> Sound Devices 744T -> Samplitude Professional v11.2.1 -> FLAC; All Transfers and Mastering By Charlie Miller
Grateful Dead - April 21, 1978
Rupp Arena - Lexington, KY

Recording Info:
SBD -> Cassette Master -> Dat (44.1k)

Transfer Info:
Dat (Sony R500) -> Sound Devices 744T -> Samplitude Professional v11.2.1 -> FLAC
(3 Discs Audio / 1 DVD FLAC)

All Transfers and Mastering By Charlie Miller
charliemiller87@earthlink.net
December 25, 2012

Patch Info:
Cassette AUD supplies:
Dire Wolf (0:00 - 2:39)

Notes:
-- This is a patched version of shnid=97501
-- Set 2 is seamless
-- Jam includes a Stayin' Alive tease
-- Thanks to Rob Eaton for lending me his Dats
-- Thanks to Matt Smith for the patch source
-- Thanks to Joe B. Jones for his help correcting the patch source

Set 1:
d1t01 - Tuning
d1t02 - Promised Land
d1t03 - Dire Wolf
d1t04 - Mama Tried ->
d1t05 - Mexicali Blues
d1t06 - Ramble On Rose
d1t07 - Funiculi Funicula
d1t08 - Passenger
d1t09 - Row Jimmy
d1t10 - It's All Over Now
d1t11 - Brown Eyed Women
d1t12 - The Music Never Stopped

Set 2:
d2t01 - Tuning
d2t02 - Samson And Delilah
d2t03 - Ship Of Fools
d2t04 - Playing In The Band ->
d2t05 - Drums ->
d3t01 - Jam ->
d3t02 - Stella Blue ->
d3t03 - Truckin'->
d3t04 - Playing In The Band

Encore:
d3t05 - Werewolves Of London


SHNTOOL OUTPUT:
    length     expanded size    cdr  WAVE problems  fmt   ratio  filename
     0:49.03        8650700 B   ---   --   ---xx   flac  0.4547  gd78-04-21d1t01.flac
     4:39.45       49321484 B   ---   --   ---xx   flac  0.6197  gd78-04-21d1t02.flac
     4:36.73       48858140 B   ---   --   ---xx   flac  0.5748  gd78-04-21d1t03.flac
     2:41.55       28529804 B   ---   --   ---xx   flac  0.6140  gd78-04-21d1t04.flac
     4:32.57       48114908 B   ---   --   ---xx   flac  0.5766  gd78-04-21d1t05.flac
    10:34.14      111870572 B   ---   --   ---xx   flac  0.5449  gd78-04-21d1t06.flac
     3:00.61       31895516 B   ---   --   ---xx   flac  0.5368  gd78-04-21d1t07.flac
     5:37.27       59510348 B   ---   --   ---xx   flac  0.6093  gd78-04-21d1t08.flac
    11:03.18      116995580 B   ---   --   ---xx   flac  0.5663  gd78-04-21d1t09.flac
     8:38.74       91549292 B   ---   --   ---xx   flac  0.6071  gd78-04-21d1t10.flac
     6:11.20       65491484 B   ---   --   ---xx   flac  0.5694  gd78-04-21d1t11.flac
     9:21.16       98998076 B   ---   --   ---xx   flac  0.6189  gd78-04-21d1t12.flac
     0:52.18        9215180 B   ---   --   ---xx   flac  0.4654  gd78-04-21d2t01.flac
     8:26.28       89324300 B   ---   --   ---xx   flac  0.6110  gd78-04-21d2t02.flac
    12:33.35      132911564 B   ---   --   ---xx   flac  0.5288  gd78-04-21d2t03.flac
    15:55.61      168605516 B   ---   --   ---xx   flac  0.6037  gd78-04-21d2t04.flac
    13:56.04      147479852 B   ---   --   ---xx   flac  0.6070  gd78-04-21d2t05.flac
     5:38.03       59630300 B   ---   --   ---xx   flac  0.6145  gd78-04-21d3t01.flac
    11:43.67      124166828 B   ---   --   ---xx   flac  0.5326  gd78-04-21d3t02.flac
     9:22.39       99228572 B   ---   --   ---xx   flac  0.5941  gd78-04-21d3t03.flac
     6:06.19       64607132 B   ---   --   ---xx   flac  0.5671  gd78-04-21d3t04.flac
     6:40.36       70644716 B   ---   --   ---xx   flac  0.5806  gd78-04-21d3t05.flac
   163:02.23     1725599864 B                            0.5809  (22 files)


ffp
gd78-04-21d1t01.flac:b8a4ec07cee0067e1f5a7e105f94b261
gd78-04-21d1t02.flac:3426c30ba7539ee496f80d18be08262c
gd78-04-21d1t03.flac:09ac571248fbb198af43c6325aeae0b1
gd78-04-21d1t04.flac:053b6b8de80e70ecd4edb1dbca0521d2
gd78-04-21d1t05.flac:8702422728ad69c0b8790793cdc0c2df
gd78-04-21d1t06.flac:0ca3d01c8e46be655d63e94c0b8d539e
gd78-04-21d1t07.flac:7c8ad8dcb83d87967333d1c870db2d82
gd78-04-21d1t08.flac:80556e54dfc1820f313ba69c448420bf
gd78-04-21d1t09.flac:b1180179d228dc429de092447b2f1ca4
gd78-04-21d1t10.flac:b753054a78fa5a51eb059474579d7745
gd78-04-21d1t11.flac:45c2c556cad4053f4e8dd770d13b8447
gd78-04-21d1t12.flac:20585f1d607c2e10a884b19b176b1b76
gd78-04-21d2t01.flac:4c0b2a4d73ce3d2e88f1d744de5b400b
gd78-04-21d2t02.flac:373275fad4cc62fe17612fdffd1625a1
gd78-04-21d2t03.flac:199035ed52915482d185d5efe58f6cc7
gd78-04-21d2t04.flac:8293755c8f280fc56d6156b8a4fe4f43
gd78-04-21d2t05.flac:9843b3f264b33152b70dba27677c96bb
gd78-04-21d3t01.flac:d147e291477d8d20044907e05b5b80d7
gd78-04-21d3t02.flac:045614b05cbceaca168523a7dd613eee
gd78-04-21d3t03.flac:87890be7cee556840a1855da5ab6fde3
gd78-04-21d3t04.flac:89dd88ec82326ad83b3f56183dfc08ae
gd78-04-21d3t05.flac:3a7cdca72fbd6f9727e3391f4a2c1402
f2a92ae6c4f5698325fae2b697e30b44 *gd78-04-21d1t01.flac
6892d0d137105a1db67d62bfc5f2bd39 *gd78-04-21d1t02.flac
862561614fa76ccffbac9b22afd4e8d3 *gd78-04-21d1t03.flac
6bc9b35973efb9b2ac39c041f5bbf25f *gd78-04-21d1t04.flac
fd38d94e334da06d2a7e75cea19d220c *gd78-04-21d1t05.flac
2470e196cbdaccee5e2c42540a99e3c1 *gd78-04-21d1t06.flac
a15aacedd863f488dbd0e77cf61e7392 *gd78-04-21d1t07.flac
8f05cad0979fb9cdef368b6a6a36f935 *gd78-04-21d1t08.flac
f1fef86d0e89d0e0422a93be5f0d7ab7 *gd78-04-21d1t09.flac
5f071a8cce6c8a22f3e27ae757ae8164 *gd78-04-21d1t10.flac
c2d2477f598fd634af7145e3858f15c1 *gd78-04-21d1t11.flac
138341da5c32ea9f64504ca65a532532 *gd78-04-21d1t12.flac
202f1c20ba20abd956bd91d6e8fdc790 *gd78-04-21d2t01.flac
ca2028f47e6c4c6481a8822a11bd41ce *gd78-04-21d2t02.flac
1c66607af062d0c73d271b6a56445eb9 *gd78-04-21d2t03.flac
560ad65de161011212cc6e93983a441c *gd78-04-21d2t04.flac
2e3b8fd3d78e38a3d18512921abf24cd *gd78-04-21d2t05.flac
cf28b33224e7932ed8d64411ed058360 *gd78-04-21d3t01.flac
f565bc12b221d24638fd83511b7f3205 *gd78-04-21d3t02.flac
4a8341f52694b0ca5b1dd34178bbe7d2 *gd78-04-21d3t03.flac
f96b4d15f0fccadba5ec0f26c76bce4c *gd78-04-21d3t04.flac
88b5cd417d3bb4424d63874f1e149001 *gd78-04-21d3t05.flac

Comments
Other Sources (comments)
SBD>MR>C>D>CD; Patched with... (6) flac16 ; Recording... (0)
Date User Comment
etreedb.org
For administrative requests email contact@etreedb.org
This website written by Tom H Anderson and maintained by the etreedb.org community.

Cached: Tue, 17 Sep 2019 13:23:07 EDT