Grateful Dead 05/10/78
Veterans Memorial Coliseum, New Haven, CT
Source # 127408
Entered by Gary Field
Checksums flac-md5 , ffp
Disc Counts 0 / 0
Media Size Compressed: 1.04 GB (1121151521 bytes)
Uncompressed: 1.73 GB (1856211128 bytes)
Date Circulated
Date Added
03/19/2014
03/19/2014
Source Summary
flac16; 2 Source Matrix by Dusborne; Soundboard (shnid:03899) seeded by Mike Lai and Audience (shnid:18753) Set 1: Sony 54-Ps>Sony TCD158>CM>C>D>CD>EAC .093B>WAV>SHN; Set 2: Sony 54-Ps>Sony TCD158>CM>D>CD>EAC .093B>WAV>SHN; Transcribed by JR Fishman
Grateful Dead
May 10, 1978
Veterans Memorial Coliseum
New Haven, CT


2 Source Matrix

Soundboard (shnid:03899)
--------------------------------------------------------------------------------
gd78-05-10.03899.sbd.lai.sbefail.shnf

seeded by Mike Lai
stellablue.etree.org
any questions contact  usalai@nycap.rr.com

Audience (shnid:18753)
-------------------------------------------------------------------------------
gd78-05-10.aud.fishman.18753.sbeok.shnf

Source:

Set 1: Sony 54-Ps>Sony TCD158>CM>C>D>CD>EAC .093B>WAV>SHN
Set 2: Sony 54-Ps>Sony TCD158>CM>D>CD>EAC .093B>WAV>SHN

Notes

This is a fine audience recording from the "golden age" of audience taping
(1977-1981).   The 1st set is from a 1st gen cassette, but don't be afraid of
that.   The 1st set is an extremely in-your-face "upfront" audience recording.   There is a bit of tape ware during the 1st few seconds of Jack Straw, but it improves from there.

The 2nd set is cleaner, has even better dynamics and only lacks the US Blues
encore.  There are probably a few seconds missing from drums but basically you
have the entire kit and kaboodle (sp?).

I've included the EAC logs for all three disks for anybody who cares.
Disk 2 was split with CD Wave.

Transcribed by
JR Fishman
NY, NY
August 1, 2003
--------------------------------------------------------------------------------
---Thank you Mike Lai for providing the SBD.
---Thank you JR Fishman for providing the AUD.
---Thank you XJ32 for the art work.
---Thank you Germain for your advice, encouragement, guidance and seeding.

Matrix by dusborne

03-18-2014
-------------------------------------------------------------------------------

Set 1

101 - gd78-05-10s1t01 - Tuning
102 - gd78-05-10s1t02 - Jack Straw
103 - gd78-05-10s1t03 - They Love Each Other
104 - gd78-05-10s1t04 - Cassidy
105 - gd78-05-10s1t05 - Ramble On Rose
106 - gd78-05-10s1t06 - Me & My Uncle ->
107 - gd78-05-10s1t07 - Big River
108 - gd78-05-10s1t08 - Peggy-O
109 - gd78-05-10s1t09 - Let It Grow ->
110 - gd78-05-10s1t10 - Deal

Set 2

201 - gd78-05-10s2t01 - Tuning
202 - gd78-05-10s2t02 - Bertha ->
203 - gd78-05-10s2t03 - Good Lovin'
204 - gd78-05-10s2t04 - It Must Have Been The Roses
205 - gd78-05-10s2t05 - Estimated Prophet ->
206 - gd78-05-10s2t06 - Eyes Of The World ->
207 - gd78-05-10s2t07 - Drums ->
208 - gd78-05-10s2t08 - Space ->
209 - gd78-05-10s2t09 - The Other One ->
210 - gd78-05-10s2t10 - Wharf Rat ->
211 - gd78-05-10s2t11 - Sugar Magnolia

Encore
212 - gd78-05-10s2t12 - U.S. Blues **SBD Only**
--------------------------------------------------------------------------------
Tagging notes:
Show information is embedded within the header of each flac file.
It will display on any player capable of directly playing flac
files. If converted to wav during processing, all tags will be
stripped, however audio data will remain unaffected. If you must
transcode to a lossy format, do so directly Flac > Lossy.
Use st5 to validate audio integrity.
Md5 values will change if tagging is altered.
Dave Usborne 03-18-2014
--------------------------------------------------------------------------------
length     expanded size    cdr  WAVE problems  fmt   ratio  filename
     0:16.66        2977676 B   ---   --   ---xx   flac  0.4722  gd78-05-10s1t01.flac
     8:10.06       86450156 B   ---   --   ---xx   flac  0.5692  gd78-05-10s1t02.flac
     9:20.21       98833436 B   ---   --   ---xx   flac  0.5743  gd78-05-10s1t03.flac
     5:51.15       61951724 B   ---   --   ---xx   flac  0.6013  gd78-05-10s1t04.flac
     8:10.42       86534828 B   ---   --   ---xx   flac  0.6019  gd78-05-10s1t05.flac
     3:00.21       31801436 B   ---   --   ---xx   flac  0.6468  gd78-05-10s1t06.flac
     6:46.65       71771324 B   ---   --   ---xx   flac  0.6261  gd78-05-10s1t07.flac
     9:19.20       98654684 B   ---   --   ---xx   flac  0.5727  gd78-05-10s1t08.flac
     9:37.73      101954540 B   ---   --   ---xx   flac  0.6314  gd78-05-10s1t09.flac
     6:58.67       73892828 B   ---   --   ---xx   flac  0.6422  gd78-05-10s1t10.flac
     0:24.16        4271276 B   ---   --   ---xx   flac  0.4823  gd78-05-10s2t01.flac
     7:48.37       82642268 B   ---   --   ---xx   flac  0.6620  gd78-05-10s2t02.flac
     6:29.26       68680796 B   ---   --   ---xx   flac  0.6354  gd78-05-10s2t03.flac
     6:34.01       69503996 B   ---   --   ---xx   flac  0.5705  gd78-05-10s2t04.flac
    11:53.05      125785004 B   ---   --   ---xx   flac  0.6179  gd78-05-10s2t05.flac
    12:16.26      129891596 B   ---   --   ---xx   flac  0.6307  gd78-05-10s2t06.flac
    19:19.40      204541724 B   ---   --   ---xx   flac  0.5733  gd78-05-10s2t07.flac
     9:12.05       97384604 B   ---   --   ---xx   flac  0.5055  gd78-05-10s2t08.flac
     7:35.06       80276156 B   ---   --   ---xx   flac  0.6215  gd78-05-10s2t09.flac
    10:16.45      108768284 B   ---   --   ---xx   flac  0.5942  gd78-05-10s2t10.flac
    10:16.22      108714188 B   ---   --   ---xx   flac  0.6548  gd78-05-10s2t11.flac
     5:45.30       60928604 B   ---   --   ---xx   flac  0.6343  gd78-05-10s2t12.flac
   175:22.55     1856211128 B                            0.6040  (22 files)


48c91f0536b3879fafc8888d809134e6 *gd78-05-10s1t01.flac
7bc67dbb29d6aa4ad2964e35c01a90bb *gd78-05-10s1t02.flac
6557f9ff079b1a76b4aad62af9f99e32 *gd78-05-10s1t03.flac
c2b968b70734eb87202c6e9d307d21cb *gd78-05-10s1t04.flac
39ff0fdc11050124f0bbf23c993f0e3f *gd78-05-10s1t05.flac
992fc25ae3b757eb09ee7b2bb74dd5d0 *gd78-05-10s1t06.flac
7ac56d4eab6e99aee13a9d0ac6c761c8 *gd78-05-10s1t07.flac
d8d71b83d50a86bc13910aaaa6363414 *gd78-05-10s1t08.flac
fe38eaa3bde82b7c0a9bda4f3296cdb5 *gd78-05-10s1t09.flac
f323c9ead68f78c7774b147495e1f1b4 *gd78-05-10s1t10.flac
4a1e92320860d85f1daea4834380e69f *gd78-05-10s2t01.flac
5c061fca414b01f2bc3a639e52dce6d3 *gd78-05-10s2t02.flac
dd2698ac296689f8f13848ddf743a14e *gd78-05-10s2t03.flac
236e4ff0b00c83a91983a1bf0e755e59 *gd78-05-10s2t04.flac
7c38f5598301e01b17ca4904e6be92bf *gd78-05-10s2t05.flac
03d6a6b52857b141b50fbf5c8bd7ac9e *gd78-05-10s2t06.flac
f684464ecbc626a53cd26da83780cfee *gd78-05-10s2t07.flac
22c87e303fd24b9e9b13152cf2c7415c *gd78-05-10s2t08.flac
c9a33c42b5ff57630b4b24b9f391815c *gd78-05-10s2t09.flac
885d2b1219dca68f801e33c32f718a54 *gd78-05-10s2t10.flac
ecd7aa977a465e46c05bf4303c6fea4f *gd78-05-10s2t11.flac
b6e03b5e015d9cdff35fc25acb8c1b17 *gd78-05-10s2t12.flac
ffp
gd78-05-10s1t01.flac:50298ee85ab2e3532108d02ce7f29783
gd78-05-10s1t02.flac:f32b1d7a6a3290743f905466e48175a7
gd78-05-10s1t03.flac:f523f08337c6805d026fd410373c94e2
gd78-05-10s1t04.flac:b4d441d3000c63081ccc1f699b7fa778
gd78-05-10s1t05.flac:bc3d0d942823415bdb6484ef1eaeac68
gd78-05-10s1t06.flac:e751bb107676ccbd986b4e7b4c4b72ab
gd78-05-10s1t07.flac:d63212aa01bc791c3d41644e85902b51
gd78-05-10s1t08.flac:2cbea2c66f5e9b86cb6378e125b1efbd
gd78-05-10s1t09.flac:8741ba2e3c4c67d022a2919da8e31904
gd78-05-10s1t10.flac:2429bf184dc89393174a39c5d9f8a0ac
gd78-05-10s2t01.flac:fa8dd6e8ab1bdfb6acc072e22e166fde
gd78-05-10s2t02.flac:29d4b52d9d86c11a64883217dbe90b53
gd78-05-10s2t03.flac:e73d45e2d3d128961777e07ff1e1fe55
gd78-05-10s2t04.flac:2af1c71967a18377506299e46dec7dc9
gd78-05-10s2t05.flac:4cc67538ac8ab480f24916d927a55b72
gd78-05-10s2t06.flac:6f85bbba81b64f8931f7eb23a139fbf1
gd78-05-10s2t07.flac:75d1226cf40ef0a7e0ca0445e3546cd2
gd78-05-10s2t08.flac:24ebdffc150476a85870e49f422c43d3
gd78-05-10s2t09.flac:8e064ad2e89adecf09dab5b41d575411
gd78-05-10s2t10.flac:4d404486480abde7f387962cc5e8ee74
gd78-05-10s2t11.flac:1d394fd8582ebea0dbd326294d752108
gd78-05-10s2t12.flac:b347527986bc533ddbfae50d1f1c4b75

Comments
Other Sources (comments)
SBD; via Mike Lai (5) Aud, Set 1: Sony... (0) flac24 ; source: aud... (0) flac16 ; source: aud... (0)
Date User Comment
etreedb.org
For administrative requests email contact@etreedb.org
This website written by Tom H Anderson and maintained by the etreedb.org community.

Cached: Sun, 20 Oct 2019 02:23:04 EDT