Camper Van Beethoven 01/20/13
Middle East, Cambridge, MA
Source # 129579
Entered by Michael
Checksums ffp , md5
Disc Counts 0 / 0
Media Size Compressed: 328.35 MB (344301244 bytes)
Date Circulated
Date Added
01/21/2013
06/02/2014
Download Text | Download Zip

Other Sources
Source Summary
flac16; Schoeps CCM4V'S(din)>Lunatec V2>Benchmark AD2K>Sound Devices 722 (24/48)
Camper Van Beethoven
Middle East Downstairs
Cambridge, Massachusetts
1/20/2013

Source: Schoeps CCM4V'S(din)>Lunatec V2>Benchmark AD2K>
Sound Devices 722 (24/48)
FOB/DFC/KFC/ZFC/AARP Clamped To Ceiling 26' From Stage, 8 1/2' High
DSP: Sound Devices 722>Sound Forge 9.0>CD Wave>flac(16)
Recorded By: Z-Man
Seeded By: Z-Man

Disc I

01 Greeting
02 ? >
03 ? >
04 ?
05 Northern California Girls
06 Make Me A Sandwich
07 Everything Is ? >
08 Tania
09 ?
10 Eye Of Fatima >
11 ? >
12 ?
13 ?
14 ?
15 Take The Skinheads Bowling
16 Shady Grove
17 All Her Favorite Fruit
18 Band Introductions

* Show Notes: In between songs you can hear a vibration/rattle.
It is the band upstairs bleeding through the floor.

flac Fingerprint

cvb2013-01d01t01.flac:a37bfbe1195e247b96877235d5e42664
cvb2013-01d01t02.flac:f9e175f7b4ba5456291522c40bb5b11d
cvb2013-01d01t03.flac:d008b3626aa892ab56f71a16e94f255d
cvb2013-01d01t04.flac:87ce2592e94519f3ed4b0eff942485ed
cvb2013-01d01t05.flac:9ae9ecd052f82d25e1aa97bdcf13e674
cvb2013-01d01t06.flac:9a79e4dc2359c1602d76f5dc61472b71
cvb2013-01d01t07.flac:31e4b1de40ae4c6bc9ed21f6d91f164f
cvb2013-01d01t08.flac:6d69f832e370944112604c8f2899b908
cvb2013-01d01t09.flac:54d2b8526c16f3e600e3cdb348a9c746
cvb2013-01d01t10.flac:e224717c7908af9c471467a2a54a8dab
cvb2013-01d01t11.flac:def3f0bbb476e80955f6c5e44268995e
cvb2013-01d01t12.flac:560be2a6280c1c25a0b40e34e8175788
cvb2013-01d01t13.flac:2e70a9066eb8cefa142f654c0a1241f2
cvb2013-01d01t14.flac:c7699aa484fd4ec42d72787b74a9b4c3
cvb2013-01d01t15.flac:aeaffd4a3ac3643ec58108b013c2ac5d
cvb2013-01d01t16.flac:8c55b00b1f5b50a844369fc48221a2c5
cvb2013-01d01t17.flac:db58e365e273fc52d1e4913881408386
cvb2013-01d01t18.flac:20d8f34722088b5a35acfe239d9b0528

Shntool

    length     expanded size    cdr  WAVE problems  fmt   ratio  filename
     0:38.09        6724412 B   ---   --   ---xx   flac  0.3531  cvb2013-01d01t01.flac
     4:25.04       46755452 B   ---   --   ---xx   flac  0.5413  cvb2013-01d01t02.flac
     2:46.13       29313020 B   ---   --   ---xx   flac  0.5248  cvb2013-01d01t03.flac
     5:33.02       58745948 B   ---   --   ---xx   flac  0.4807  cvb2013-01d01t04.flac
     7:52.32       83336108 B   ---   --   ---xx   flac  0.4430  cvb2013-01d01t05.flac
     7:30.65       79532924 B   ---   --   ---xx   flac  0.4592  cvb2013-01d01t06.flac
     5:13.07       55229708 B   ---   --   ---xx   flac  0.5001  cvb2013-01d01t07.flac
     1:58.41       20911676 B   ---   --   ---xx   flac  0.5285  cvb2013-01d01t08.flac
     1:34.54       16708652 B   ---   --   ---xx   flac  0.4971  cvb2013-01d01t09.flac
     3:01.12       31956668 B   ---   --   ---xx   flac  0.5240  cvb2013-01d01t10.flac
     2:18.73       24514940 B   ---   --   ---xx   flac  0.5402  cvb2013-01d01t11.flac
     4:22.03       46223900 B   ---   --   ---xx   flac  0.4330  cvb2013-01d01t12.flac
     5:49.25       61622444 B   ---   --   ---xx   flac  0.4876  cvb2013-01d01t13.flac
     2:00.62       21313868 B   ---   --   ---xx   flac  0.5093  cvb2013-01d01t14.flac
     2:35.52       27464348 B   ---   --   ---xx   flac  0.5526  cvb2013-01d01t15.flac
     2:51.60       30305564 B   ---   --   ---xx   flac  0.4966  cvb2013-01d01t16.flac
     5:14.46       55497836 B   ---   --   ---xx   flac  0.4605  cvb2013-01d01t17.flac
     1:22.57       14598908 B   ---   --   ---xx   flac  0.4028  cvb2013-01d01t18.flac
    67:09.17      710756376 B                            0.4844  (18 files)














ffp
cvb2013-01d01t01.flac:a37bfbe1195e247b96877235d5e42664
cvb2013-01d01t02.flac:f9e175f7b4ba5456291522c40bb5b11d
cvb2013-01d01t03.flac:d008b3626aa892ab56f71a16e94f255d
cvb2013-01d01t04.flac:87ce2592e94519f3ed4b0eff942485ed
cvb2013-01d01t05.flac:9ae9ecd052f82d25e1aa97bdcf13e674
cvb2013-01d01t06.flac:9a79e4dc2359c1602d76f5dc61472b71
cvb2013-01d01t07.flac:31e4b1de40ae4c6bc9ed21f6d91f164f
cvb2013-01d01t08.flac:6d69f832e370944112604c8f2899b908
cvb2013-01d01t09.flac:54d2b8526c16f3e600e3cdb348a9c746
cvb2013-01d01t10.flac:e224717c7908af9c471467a2a54a8dab
cvb2013-01d01t11.flac:def3f0bbb476e80955f6c5e44268995e
cvb2013-01d01t12.flac:560be2a6280c1c25a0b40e34e8175788
cvb2013-01d01t13.flac:2e70a9066eb8cefa142f654c0a1241f2
cvb2013-01d01t14.flac:c7699aa484fd4ec42d72787b74a9b4c3
cvb2013-01d01t15.flac:aeaffd4a3ac3643ec58108b013c2ac5d
cvb2013-01d01t16.flac:8c55b00b1f5b50a844369fc48221a2c5
cvb2013-01d01t17.flac:db58e365e273fc52d1e4913881408386
cvb2013-01d01t18.flac:20d8f34722088b5a35acfe239d9b0528
md5
7f973509f6c6f172000b0ee04e21f730 *cvb2013-01d01t01.flac
c35ed892eb3aca202e9e1917b0449abb *cvb2013-01d01t02.flac
0a19b8ce1eca0cdfa596b7b6ce1d1f6b *cvb2013-01d01t03.flac
77f9339eaec58ef6a1f83e4a065dbc39 *cvb2013-01d01t04.flac
5b73dbd9e93cc7aa5a9bfb7ca23196d4 *cvb2013-01d01t05.flac
076f8a7d355ebc5a245545d98b27baf0 *cvb2013-01d01t06.flac
54ff751f802153ca9fab2fc708c927e1 *cvb2013-01d01t07.flac
04f6b3a02cd1668994719d6889c290ed *cvb2013-01d01t08.flac
f6df527d53881e8ff4bef5630100b61b *cvb2013-01d01t09.flac
5815f422904178c29396005d0a7c05e7 *cvb2013-01d01t10.flac
05187f0bfa3f053cfaea723e2ddac6b6 *cvb2013-01d01t11.flac
6949ff6a341ef8517ec1bda5ff90aaf3 *cvb2013-01d01t12.flac
55b312a86f556cef44210e25e0c56901 *cvb2013-01d01t13.flac
5eec0a43fcfb144d46c9c8b416adc7f6 *cvb2013-01d01t14.flac
4f21f2a156fdca47bfef085c0694eedb *cvb2013-01d01t15.flac
6e8752a37ca5beb22e69de272ccb78f0 *cvb2013-01d01t16.flac
703f189325b97bee37fc5ea06ff51b55 *cvb2013-01d01t17.flac
3352d79aedd9539a622d1dbff568ffde *cvb2013-01d01t18.flac

Comments
Date User Comment
etreedb.org
For administrative requests email contact@etreedb.org
This website written by Tom H Anderson and maintained by the etreedb.org community.

Cached: Tue, 24 Nov 2020 00:53:46 EST