Grateful Dead 12/15/78
Boutwell Auditorium, Birmingham, AL
Source # 143923
Entered by Matt Vernon
Checksums ffp , flac-md5
Disc Counts 0 / 0
Media Size Compressed: 838 MB (878706688 bytes)
Uncompressed: 1.47 GB (1583543812 bytes)
Date Circulated
Date Added
11/29/2018
11/29/2018
Source Summary
flac16; Source: unknown aud Master Cassette > 10” Reels > PCM; Transfer: PCM > Sony SL-HF360 >Modified Sony 601 > Marantz PMD 661 > wav 16/44.1 - Transferred by the late Kris Westcott; Lineage: wav 16/44.1 > iZotope RX7 Advanced > iZotope Ozone 5 > CD Wave > Flac 16; edited and mastered SIRMick November 2018
Grateful Dead
Boutwell Auditorium
Birmingham, AL
12/15/1978

Source: unknown aud Master Cassette > 10" Reels > PCM
Transfer: PCM > Sony SL-HF360 >Modified Sony 601 > Marantz PMD 661 > wav 16/44.1 - Transferred by the late Kris Westcott.
Lineage:  wav 16/44.1 > iZotope RX7 Advanced > iZotope Ozone 5 > CD Wave > Flac 16


Set I

01   tuning
02   The Promised Land
03   Shakedown Street
04   New Minglewood Blues
05   Friend Of The Devil
06   El Paso
07   From The Heart Of Me
08   Brown Eyed Women
09   Cassidy
10   Deal


Set II

01   tuning
02   I Need A Miracle >
03   Bertha >
04   Good Lovin'
05   It Must Have Been The Roses
06   Terrapin Station >
07   Playing In The Band >
08   Drums >
09   Space >
10   Stella Blue >
11   Truckin' >
12   Playing In The Band (reprise)

encore

13   U.S. Blues



Notes:

- DC Offset removed.
- The tape was paused between most songs in Set I, transitions have been cleaned up.
- Pitch corrected.


Thanks to Joe B. Jones for help with pitch correction

Thanks to Kris Westcott R.I.P for the transfer.

Thanks to the unknown taper who got a very good capture.


edited amd mastered
SIRMick
November 2018


shntool output:

    length     expanded size    cdr  WAVE problems  fmt   ratio  filename
     0:41.04        7241852 B   ---   --   ---xx   flac  0.4898  gd1978-12-15s1t01.flac
     4:47.02       50631548 B   ---   --   ---xx   flac  0.5391  gd1978-12-15s1t02.flac
     7:52.22       83312588 B   ---   --   ---xx   flac  0.5287  gd1978-12-15s1t03.flac
     5:29.71       58202636 B   ---   --   ---xx   flac  0.5337  gd1978-12-15s1t04.flac
     9:34.35      101335964 B   ---   --   ---xx   flac  0.5215  gd1978-12-15s1t05.flac
     4:26.14       46955372 B   ---   --   ---xx   flac  0.5341  gd1978-12-15s1t06.flac
     3:49.61       40539116 B   ---   --   ---xx   flac  0.5374  gd1978-12-15s1t07.flac
     5:28.52       57981548 B   ---   --   ---xx   flac  0.4919  gd1978-12-15s1t08.flac
     4:59.12       52771868 B   ---   --   ---xx   flac  0.5045  gd1978-12-15s1t09.flac
     6:18.21       66728636 B   ---   --   ---xx   flac  0.5178  gd1978-12-15s1t10.flac
     2:15.31       23886956 B   ---   --   ---xx   flac  0.4172  gd1978-12-15s2t01.flac
     5:21.74       56798492 B   ---   --   ---xx   flac  0.5444  gd1978-12-15s2t02.flac
     6:53.08       72872060 B   ---   --   ---xx   flac  0.5608  gd1978-12-15s2t03.flac
     7:41.63       81468620 B   ---   --   ---xx   flac  0.5539  gd1978-12-15s2t04.flac
     8:14.28       87207500 B   ---   --   ---xx   flac  0.5279  gd1978-12-15s2t05.flac
    12:41.51      134360396 B   ---   --   ---xx   flac  0.5970  gd1978-12-15s2t06.flac
    10:09.43      107528780 B   ---   --   ---xx   flac  0.6089  gd1978-12-15s2t07.flac
     8:26.12       89286668 B   ---   --   ---xx   flac  0.5583  gd1978-12-15s2t08.flac
     3:07.32       33062108 B   ---   --   ---xx   flac  0.5511  gd1978-12-15s2t09.flac
    11:19.51      119895596 B   ---   --   ---xx   flac  0.5691  gd1978-12-15s2t10.flac
    10:08.62      107397068 B   ---   --   ---xx   flac  0.6018  gd1978-12-15s2t11.flac
     3:59.54       42286652 B   ---   --   ---xx   flac  0.6026  gd1978-12-15s2t12.flac
     5:50.22       61791788 B   ---   --   ---xx   flac  0.6244  gd1978-12-15s2t13.flac
   149:37.00     1583543812 B                            0.5551  (23 files)




ffp
gd1978-12-15s1t01.flac:4304db08eddca70b31d9acea4b7339eb
gd1978-12-15s1t02.flac:3ac683594d733d2f0f11177a8298a2e1
gd1978-12-15s1t03.flac:6af3332a9398046e4804521b8176bb4a
gd1978-12-15s1t04.flac:dd0081bbdc37f2aeb0a462f7af89dc2a
gd1978-12-15s1t05.flac:c2907fdc7f0c3dc2a1fced71d6b33396
gd1978-12-15s1t06.flac:47c2c0beba0f854b91aa87affed04b24
gd1978-12-15s1t07.flac:db3560cd196555474956ef0d956997a9
gd1978-12-15s1t08.flac:926e1bc7d8b9425dc5b949a4885c9b0f
gd1978-12-15s1t09.flac:4541815415c782f605d26cdabbc5598d
gd1978-12-15s1t10.flac:3f789b063c90d59e747670588ff04b89
gd1978-12-15s2t01.flac:ec7d5706af6d356fea9b9410268c3df2
gd1978-12-15s2t02.flac:dae0d82300f0ece71be98439fb3523f4
gd1978-12-15s2t03.flac:b7fb41eeeffbf2de187b216ce59423c6
gd1978-12-15s2t04.flac:0988c0525ea1bb8773936d5d84466403
gd1978-12-15s2t05.flac:65561cb6a58621dfb822503476ef8230
gd1978-12-15s2t06.flac:a3a7bd50c170eacaa81bf0b7baba3771
gd1978-12-15s2t07.flac:5d67d43f171200a00eece8b967e752c2
gd1978-12-15s2t08.flac:e047141dd47deab937fc249e6ae0e109
gd1978-12-15s2t09.flac:2db5a51d39de8963393896b8b9ce681f
gd1978-12-15s2t10.flac:392d00d621c9234666ff4e79e1b890fc
gd1978-12-15s2t11.flac:c9e099e9ba4314658cdc5bb1d8d9317b
gd1978-12-15s2t12.flac:c90b16c84349d2ef3b2f7136856c5ca6
gd1978-12-15s2t13.flac:9abbb8b2f07f944ab0ad52b3401c6de4
4ed7e6de469ea10336c408c13398e768 *gd1978-12-15s1t01.flac
34ce734b0538f35ba75aaae485607aeb *gd1978-12-15s1t02.flac
a8b7a1688f94ff7e6e10546c583a0751 *gd1978-12-15s1t03.flac
62549499dfc6f2d073ef30ce6471a7eb *gd1978-12-15s1t04.flac
5cc1a00415c7032b757556def593d1dd *gd1978-12-15s1t05.flac
f5190fe0a87e56682fa8e27010981b93 *gd1978-12-15s1t06.flac
c5dbfe97e35cc90c90b6ba5ae83f3281 *gd1978-12-15s1t07.flac
707b21dda193e41ba87e3bfff0b7eb80 *gd1978-12-15s1t08.flac
01b013a4e46e6ff504e6c46ec50631fb *gd1978-12-15s1t09.flac
55eead8530713217fa8e71f83e793088 *gd1978-12-15s1t10.flac
3ce95ba557f9ddb5469b5555eaa1e9d4 *gd1978-12-15s2t01.flac
c01f25684cc42e8dedad48502b8a877d *gd1978-12-15s2t02.flac
6c327e224b3829eb7f9fa30658f440e9 *gd1978-12-15s2t03.flac
06b53894ca58de8ac0852e857bb35c34 *gd1978-12-15s2t04.flac
63467ef5cd888fb07af4bb64c372855c *gd1978-12-15s2t05.flac
476080f503293362b5ffb3f3552574cf *gd1978-12-15s2t06.flac
2eaf72bf46335081c75b6dacaf8cd36e *gd1978-12-15s2t07.flac
1cdaf71f7546d0ee2144a6ce5c178d47 *gd1978-12-15s2t08.flac
34cdcc058590ff3bf56c11d45ecb0ca5 *gd1978-12-15s2t09.flac
b8f01aded6f2111e57e561e7fd6619e4 *gd1978-12-15s2t10.flac
324709fd4a793fef9b963eace1f1dd04 *gd1978-12-15s2t11.flac
43006cedf4ad10776766086dc6ee92f4 *gd1978-12-15s2t12.flac
c26300fdee2b6bd5631be67077a73bd4 *gd1978-12-15s2t13.flac

Comments
Other Sources (comments)
AUD(Sony 54P?s)>MC>DAT>CDR;... (0)
Date User Comment
etreedb.org
For administrative requests email contact@etreedb.org
This website written by Tom H Anderson and maintained by the etreedb.org community.

Cached: Sun, 25 Oct 2020 04:19:40 EDT