Mickey Hart 06/26/81
Warfield Theater, San Francisco, CA
Source # 151396
Entered by ziko
Checksums md5 , ffp
Disc Counts 0 / 0
Media Size
Date Circulated
Date Added
02/01/2021
01/06/2021
Source Summary
Source Info:
Richard Senicola and Jaime Poris' Master Audience Cassettes > Nakamichi 700 mics (Mark Severson's equipment) > Nakamichi 550 > Sony TC-D5M (Maxell MX 90)
Transfer Info:
Master Cassettes (Nakamichi CR-7A)> Tascam DA-3000 (DSF 1-bit/5.6 MHz) > dBpoweramp 24/96 > Adobe Audition CC 2020 > TLH flac2496
High Noon
Warfield Theater
San Francisco, CA
Santa Cruz, CA
Friday   June 26th, 1981

Source Info:
Richard Senicola and Jaime Poris' Master Audience Cassettes > Nakamichi 700 mics (Mark Severson's equipment) > Nakamichi 550 > Sony TC-D5M (Maxell MX 90)

Transfer Info:
Master Cassettes (Nakamichi CR-7A)> Tascam DA-3000 (DSF 1-bit/5.6 MHz) > dBpoweramp 24/96 > Adobe Audition CC 2020 > TLH flac2496

Notes:
- Thanks to Mark Severson for lending Richard and Jaime his equipment and also for the master cassettes
- Thanks to Charlie Miller for the transfer and coordinating this effort
- High Noon with Mickey Hart, opened for Jerry Garcia Band
- Beginning of "Cross The Bridge" clipped, tape flip in "Fever"
- Thanks to Joe B. Jones for verifying the pitch

Mastered by Scott Clugston
September 2020

t01 - //Cross The Bridge
t02 - Lay Back Baby
t03 - Follow
t04 - Do I Move You ?
t05 - I'm Puttin' My Trust In You
t06 - Creature of Comfort
t07 - ?
t08 - bass solo
t09 - F//ever
t10 - Pick Me Up In The Morning
t11 - Little Girl
t12 - Hi-Heel Sneakers


High Noon:
Mike Hinton - guitar
Jim McPherson - guitar, keyboards, percussion, vocals
Norton Buffalo - harmonica, vocals
Merl Saunders - organ, synthesizer, grand piano, vocals
Bobby Vega - bass
Mickey Hart-drums
Vicki Randle - congas, percussion, vocals


    length     expanded size    cdr  WAVE problems  fmt   ratio  filename
     9:52.600     341337644 B   cxx   --   ---xx   flac  0.6905  highnoon81-06-26 t01 Cross The Bridge.flac
     6:52.280     237473324 B   cxx   --   ---xx   flac  0.6914  highnoon81-06-26 t02 Lay Back Baby.flac
     3:58.547     137402924 B   cxx   --   ---xx   flac  0.6858  highnoon81-06-26 t03 Follow.flac
     7:30.747     259630124 B   cxx   --   ---xx   flac  0.6880  highnoon81-06-26 t04 Do I Move You.flac
     6:19.547     218618924 B   cxx   --   ---xx   flac  0.6901  highnoon81-06-26 t05 I'm Puttin' My Trust In You.flac
     6:50.040     236183084 B   cxx   --   ---xx   flac  0.6913  highnoon81-06-26 t06 Creature Of Comfort.flac
     3:29.333     120576044 B   cxx   --   ---xx   flac  0.6927  highnoon81-06-26 t07 Unknown.flac
     1:35.107      54781484 B   cxx   --   ---xx   flac  0.6715  highnoon81-06-26 t08 Bass solo.flac
     5:34.587     192721964 B   cxx   --   ---xx   flac  0.6938  highnoon81-06-26 t09 Fever.flac
     5:36.747     193966124 B   cxx   --   ---xx   flac  0.6868  highnoon81-06-26 t10 Pick Me Up In The Morning.flac
     5:10.933     179097644 B   cxx   --   ---xx   flac  0.6927  highnoon81-06-26 t11 Little Girl.flac
     5:32.083     191280110 B   cxx   --   ---xx   flac  0.6986  highnoon81-06-26 t12 Hi-Heel Sneakers.flac
    68:22.550    2363069394 B                            0.6905  (12 files)

No errors occured.


7609416dca9ab1a6421e63aae4a0c9a8 *highnoon81-06-26 t01 Cross The Bridge.flac
314548ae04fd0030bb762c381218cbbf *highnoon81-06-26 t02 Lay Back Baby.flac
78db2c8385de5f4e12039f91acb18c00 *highnoon81-06-26 t03 Follow.flac
90bd42e761dcb20e94098b3a70063a40 *highnoon81-06-26 t04 Do I Move You.flac
46b328b178cc323e7023818faddc9fb4 *highnoon81-06-26 t05 I'm Puttin' My Trust In You.flac
16605e8c6f0b96ad9bc0e6fdd8dff34d *highnoon81-06-26 t06 Creature Of Comfort.flac
e9cd0ee1afdf58b2159e8ee7b6020096 *highnoon81-06-26 t07 Unknown.flac
5a983817c6362d7670fc23cd6dc68367 *highnoon81-06-26 t08 Bass solo.flac
762f4695c220cbad5816f6eb50d1817a *highnoon81-06-26 t09 Fever.flac
c39273797715d64c2e3f1237a8e45fa1 *highnoon81-06-26 t10 Pick Me Up In The Morning.flac
1d7fece4f58986d170a424f43e5df6c6 *highnoon81-06-26 t11 Little Girl.flac
c8389e144083018931d771b34f326f25 *highnoon81-06-26 t12 Hi-Heel Sneakers.flac

No errors occured.


highnoon81-06-26 t01 Cross The Bridge.flac:fc7905af6b16a25efd6df70d841dc7fe
highnoon81-06-26 t02 Lay Back Baby.flac:f75da659e6e9ee73390c93ff31e78cfa
highnoon81-06-26 t03 Follow.flac:986d36f05bad56f029e01b162be88637
highnoon81-06-26 t04 Do I Move You.flac:3fcbadd327974385b53a2d9ae08f1068
highnoon81-06-26 t05 I'm Puttin' My Trust In You.flac:b89bcb707b26578388dc5097a9fb0eeb
highnoon81-06-26 t06 Creature Of Comfort.flac:1f96381bfa3e4e14e7e52bf876cd1e07
highnoon81-06-26 t07 Unknown.flac:95a2211e2995446315c86800132fbd8e
highnoon81-06-26 t08 Bass solo.flac:0d2b7367990e7cb59011df6634acf213
highnoon81-06-26 t09 Fever.flac:db0ce5ba9fe8867b0bc3cd9d76ad1dc6
highnoon81-06-26 t10 Pick Me Up In The Morning.flac:a151dc9b03b6f776826ee7857538a69e
highnoon81-06-26 t11 Little Girl.flac:2c71cc657f95fe32003ba0c9f1684939
highnoon81-06-26 t12 Hi-Heel Sneakers.flac:42d7a59bffc7c8284c8d8154e700f333

No errors occured.


md5
7609416dca9ab1a6421e63aae4a0c9a8 *highnoon81-06-26 t01 Cross The Bridge.flac
314548ae04fd0030bb762c381218cbbf *highnoon81-06-26 t02 Lay Back Baby.flac
78db2c8385de5f4e12039f91acb18c00 *highnoon81-06-26 t03 Follow.flac
90bd42e761dcb20e94098b3a70063a40 *highnoon81-06-26 t04 Do I Move You.flac
46b328b178cc323e7023818faddc9fb4 *highnoon81-06-26 t05 I'm Puttin' My Trust In You.flac
16605e8c6f0b96ad9bc0e6fdd8dff34d *highnoon81-06-26 t06 Creature Of Comfort.flac
e9cd0ee1afdf58b2159e8ee7b6020096 *highnoon81-06-26 t07 Unknown.flac
5a983817c6362d7670fc23cd6dc68367 *highnoon81-06-26 t08 Bass solo.flac
762f4695c220cbad5816f6eb50d1817a *highnoon81-06-26 t09 Fever.flac
c39273797715d64c2e3f1237a8e45fa1 *highnoon81-06-26 t10 Pick Me Up In The Morning.flac
1d7fece4f58986d170a424f43e5df6c6 *highnoon81-06-26 t11 Little Girl.flac
c8389e144083018931d771b34f326f25 *highnoon81-06-26 t12 Hi-Heel Sneakers.flac
ffp
highnoon81-06-26 t01 Cross The Bridge.flac:fc7905af6b16a25efd6df70d841dc7fe
highnoon81-06-26 t02 Lay Back Baby.flac:f75da659e6e9ee73390c93ff31e78cfa
highnoon81-06-26 t03 Follow.flac:986d36f05bad56f029e01b162be88637
highnoon81-06-26 t04 Do I Move You.flac:3fcbadd327974385b53a2d9ae08f1068
highnoon81-06-26 t05 I'm Puttin' My Trust In You.flac:b89bcb707b26578388dc5097a9fb0eeb
highnoon81-06-26 t06 Creature Of Comfort.flac:1f96381bfa3e4e14e7e52bf876cd1e07
highnoon81-06-26 t07 Unknown.flac:95a2211e2995446315c86800132fbd8e
highnoon81-06-26 t08 Bass solo.flac:0d2b7367990e7cb59011df6634acf213
highnoon81-06-26 t09 Fever.flac:db0ce5ba9fe8867b0bc3cd9d76ad1dc6
highnoon81-06-26 t10 Pick Me Up In The Morning.flac:a151dc9b03b6f776826ee7857538a69e
highnoon81-06-26 t11 Little Girl.flac:2c71cc657f95fe32003ba0c9f1684939
highnoon81-06-26 t12 Hi-Heel Sneakers.flac:42d7a59bffc7c8284c8d8154e700f333

Comments
Other Sources (comments)
This is a 16/48 fileset.... (0)
Date User Comment
etreedb.org
For administrative requests email contact@etreedb.org
This website written by Tom H Anderson and maintained by the etreedb.org community.

Cached: Wed, 12 Jun 2024 15:13:12 EDT