Avalon Allstars 04/20/04
Avalon Ballroom, San Francisco, CA
Source # 151422
Entered by Todd
Checksums ffp , shntool
Disc Counts 0 / 0
Media Size Compressed: 633 MB (663748608 bytes)
Date Circulated
Date Added

01/10/2021
Source Summary
AKGC61's XY@ the lip center > + vocals direct (thanks Howard) Mix > Mackie 1202 > DA-P1 > Mac > Flac Live recording & post Art Granoff paneltour@yahoo.com
The Panel Presents

The Avalon Allstars
Tues 04.20.04
Avalon Ballroom
San Francisco, CA

~~~~~~~~~~~~~~~~~~~~~~~~~~~~~~~~~~~~~~~~~~~~~~~~~~~~~~~

the players:

John Molo drums
Melvin Seals keys, vocal
Mark Karan guitar, vocal
Bobby Vega bass


Phil Lesh bass, vocal *

Ray White guitar, vocal ++
Ike Willis guitar, vocal ++
Will Bernard guitar +
Alan Hertz drums  +

Howard Danchik live sound

Vega returns to the stage after Lesh splits.
~~~~~~~~~~~~~~~~~~~~~~~~~~~~~~~~~~~~~~~~~~~~~~~~~~~~~~

the tunes:

cd1
Wavy Gravy speaks
Hey Pockey Way
That's What Love Will Make You Do
Meters tune...
Good Morning Little Schoolgirl *
Easy Wind *

cd2
Sugaree *
Island In the Sun ++
Whippin' Post ++
Bamboozled By Love ++,+
Let Me Love You Baby ++, +

~~~~~~~~~~~~~~~~~~~~~~~~~~~~~~~~~~~~~~~~~~~~~~~~~~~~~~~

AKGC61's XY@ the lip center >
+ vocals direct (thanks Howard) Mix >
Mackie 1202 > DA-P1 >
Mac > Flac

Live recording & post   Art Granoff
paneltour@yahoo.com


Nothing..................is like 420 @ the Avalon!

ffp
aallstars2004-04-20d1t1.flac:b38820b3c7e6158680570df3c862fdaf
aallstars2004-04-20d1t2.flac:b078cd2928e4b803254f38cda2891465
aallstars2004-04-20d1t3.flac:0203a143841c3922d6f162418c016ad1
aallstars2004-04-20d1t4.flac:8c6bf8815444b8fb8f8ac13b12b760b6
aallstars2004-04-20d1t5.flac:875b1c5e1ddb6e269f1703acc0080b91
aallstars2004-04-20d1t6.flac:6a26f494728aa14a3e09036427878e19
aallstars2004-04-20d2t1.flac:4250b5ef5c80bb93a3f10dcdb52d2da6
aallstars2004-04-20d2t2.flac:fe9c253bdbdd71c034691031a097f224
aallstars2004-04-20d2t3.flac:77fd7a69855450a6fc25877d77566e04
aallstars2004-04-20d2t4.flac:ca99f2b8a649817dc6fa05d68992d3bc
aallstars2004-04-20d2t5.flac:a9fcef7b8f21335a0ef306675bf7d5f4
length expanded size cdr WAVE problems fmt ratio filename
7:01.45 74370284 B --- -- ----- wav 1.0000 aallstars2004-04-20d1t1.wav
26:43.03 282776300 B --- -- ----- wav 1.0000 aallstars2004-04-20d1t2.wav
9:09.01 96845996 B --- -- ----- wav 1.0000 aallstars2004-04-20d1t3.wav
10:09.00 107427644 B --- -- ----- wav 1.0000 aallstars2004-04-20d1t4.wav
11:17.54 119549852 B --- -- ----- wav 1.0000 aallstars2004-04-20d1t5.wav
8:59.52 95201948 B --- -- ----- wav 1.0000 aallstars2004-04-20d1t6.wav
15:48.64 167377772 B --- -- ----- wav 1.0000 aallstars2004-04-20d2t1.wav
10:10.51 107723996 B --- -- ----- wav 1.0000 aallstars2004-04-20d2t2.wav
10:28.17 110819228 B --- -- ----- wav 1.0000 aallstars2004-04-20d2t3.wav
7:36.32 80513708 B --- -- ----- wav 1.0000 aallstars2004-04-20d2t4.wav
8:47.34 93042812 B --- -- ----- wav 1.0000 aallstars2004-04-20d2t5.wav
126:11.53 1335649540 B 1.0000 (11 files)

Comments
Other Sources (comments)
Sound path: AKG... (0)
Date User Comment
etreedb.org
For administrative requests email contact@etreedb.org
This website written by Tom H Anderson and maintained by the etreedb.org community.

Cached: Mon, 17 Jun 2024 06:40:21 EDT