Railroad Earth 01/29/22
The Cavern, Pelham, TN
Source # 155589
Entered by Mark Goldey
Checksums ffp
Disc Counts 0 / 0
Media Size Compressed: 927.51 MB (972562748 bytes)
Uncompressed: 1.66 GB (1783872972 bytes)
Date Circulated
Date Added
01/30/2022
02/04/2022
Source Summary
Source: Schoeps CCM4V's>Lunatec V2>Sound Devices 722 (24/44.1) FOB/DFC/KFC/ZFC/ADA/AARP 31' From Stage, 8' In The Air
DSP: Sound Devices 722>Sound Forge 10.0>CD Wave>flac(16)
ID3 Tagged In Foobar 2000
Recorded By: Z-Man
Railroad Earth
The Caverns
Pelham, Tennessee
1/29/2022

Source: Schoeps CCM4V's>Lunatec V2>Sound Devices 722 (24/44.1)
FOB/DFC/KFC/ZFC/ADA/AARP 31' From Stage, 8' In The Air
DSP: Sound Devices 722>Sound Forge 10.0>CD Wave>flac(16)
ID3 Tagged In Foobar 2000
Recorded By: Z-Man
Seeded By: Z-Man
A Team Dirty South Recording

Disc I 1st Set

01 Bird In The House
02 Dance Around Molly >
03 Dandelion Wine
04 Been Down That Road >
05 The Cuckoo
06 Lovin' You
07 When The Sun Gets In Your Blood
08 Elko >
09 Stillwater Getaway
10 Powderfinger

Disc II 2nd Set

01 *Blues Highway
02 Farewell To Isinglass
03 Captain Nowhere >
04 Drag Him Down
05 Potter's Field
06 Old Man And The Land
07 RV

Disc III 2nd Set Con't

01 Where Songs Begin >
02 12 Wolves
03 Seven Story Mountain
Encore:
04 Peace On Earth

* First Time Played

Todd Sheaffer - Guitar And vocals
Tim Carbone - Fiddle And Vocals
John Skehan - Mandolin And Vocals
Andrew Altman - Bass And Vocals
Carey Harmon - Drums And vocals
Mike Robinson - Pedal Steel Guitar, Banjo, Guitar, And Vocals
Matt Slocum - Keyboards

length expanded size cdr WAVE problems fmt ratio filename
7:54.18 83655980 B --- -- ---xx flac 0.5121 railroad2022-01-29d01t01.flac
2:47.59 29597612 B --- -- ---xx flac 0.5447 railroad2022-01-29d01t02.flac
5:14.43 55490780 B --- -- ---xx flac 0.5404 railroad2022-01-29d01t03.flac
4:42.31 49817756 B --- -- ---xx flac 0.4795 railroad2022-01-29d01t04.flac
10:11.30 107851004 B --- -- ---xx flac 0.5518 railroad2022-01-29d01t05.flac
4:37.73 49034540 B --- -- ---xx flac 0.4382 railroad2022-01-29d01t06.flac
7:59.07 84512108 B --- -- ---xx flac 0.5587 railroad2022-01-29d01t07.flac
9:18.67 98588828 B --- -- ---xx flac 0.5732 railroad2022-01-29d01t08.flac
9:49.26 103960796 B --- -- ---xx flac 0.5812 railroad2022-01-29d01t09.flac
11:15.17 119110028 B --- -- ---xx flac 0.5561 railroad2022-01-29d01t10.flac
7:00.46 74196236 B --- -- ---xx flac 0.5501 railroad2022-01-29d02t01.flac
6:57.68 73718780 B --- -- ---xx flac 0.5384 railroad2022-01-29d02t02.flac
11:59.07 126848108 B --- -- ---xx flac 0.5017 railroad2022-01-29d02t03.flac
5:11.35 54942764 B --- -- ---xx flac 0.5603 railroad2022-01-29d02t04.flac
6:50.01 72326396 B --- -- ---xx flac 0.5027 railroad2022-01-29d02t05.flac
6:33.03 69332300 B --- -- ---xx flac 0.5472 railroad2022-01-29d02t06.flac
5:24.01 57155996 B --- -- ---xx flac 0.5803 railroad2022-01-29d02t07.flac
9:13.63 97697420 B --- -- ---xx flac 0.5707 railroad2022-01-29d03t01.flac
14:20.10 151727564 B --- -- ---xx flac 0.6083 railroad2022-01-29d03t02.flac
15:33.08 164600060 B --- -- ---xx flac 0.5121 railroad2022-01-29d03t03.flac
5:38.36 59707916 B --- -- ---xx flac 0.5624 railroad2022-01-29d03t04.flac
168:32.49 1783872972 B 0.5452 (21 files)
ffp
railroad2022-01-29d01t01.flac:e11cff278bb3d5dfac110d3f0376ac39
railroad2022-01-29d01t02.flac:a9b57c60bbe56161aa657fc5639e6f75
railroad2022-01-29d01t03.flac:36d24a15c1f37afccc69f80432ac8987
railroad2022-01-29d01t04.flac:6b9fd5b885c9cb2e64fda7aab043cceb
railroad2022-01-29d01t05.flac:434e9819ad76bf5e904c72675364517c
railroad2022-01-29d01t06.flac:01360270c8db11ec38240834f2fe4743
railroad2022-01-29d01t07.flac:dc88932975a1d19636cd13104c108ae7
railroad2022-01-29d01t08.flac:f038bcafe668ab32b667ee19eec82138
railroad2022-01-29d01t09.flac:0090ea4c0172a654bf61f5610369cf9e
railroad2022-01-29d01t10.flac:634a4dcf8bd1db006169170de978c14b
railroad2022-01-29d02t01.flac:a5823e76f27cb49f313d0ce46d30ca9b
railroad2022-01-29d02t02.flac:4750a41b2f3ef021b43ced23990e113b
railroad2022-01-29d02t03.flac:474d23479cdccd27328efd6d58a85759
railroad2022-01-29d02t04.flac:86828098837530a42507561a9ddbd255
railroad2022-01-29d02t05.flac:6d57fc119ca34b0b2b51f3c28ff0a0dd
railroad2022-01-29d02t06.flac:e6b3d3a4b53f720d623667dab55aeaf3
railroad2022-01-29d02t07.flac:d520b90c167ad29b5a1a1bc68d4be49b
railroad2022-01-29d03t01.flac:9929902e50b9b8a705c132b74b7fce3f
railroad2022-01-29d03t02.flac:03c9138515bf47a0683a6644f8758495
railroad2022-01-29d03t03.flac:579dc89b054b9407773a166ce77ee36f
railroad2022-01-29d03t04.flac:97bd79e28cb033e0ba7a7513a2b060a6

Comments
Other Sources (comments)
Neumann 140’s > V-3 >... (0)
Date User Comment
etreedb.org
For administrative requests email contact@etreedb.org
This website written by Tom H Anderson and maintained by the etreedb.org community.

Cached: Sat, 25 Jun 2022 03:47:16 EDT