Charlie Hunter & Scott Amendola 05/18/22
The Burr Oak, Madison, WI
Source # 157988
Entered by Mark Goldey
Checksums ffp
Disc Counts 0 / 0
Media Size
Uncompressed: 1.88 GB (2015327998 bytes)
Date Circulated
Date Added
05/28/2022
09/05/2022
Source Summary
Source: AT4050st on stage>bus dr70 24/48
Transfer: SD>Picklemacmini> Audacity 2.0.1> Xact 2.47 > FLAC
Recorded and transferred: Jason "Picklemic" Loomis
Charlie Hunter & Scott Amendola
May 18th, 2022
Bur Oak
Madison, WI


Source: AT4050st on stage>bus dr70 24/48
Transfer: SD>Picklemacmini> Audacity 2.0.1> Xact 2.47 > FLAC
Recorded and transferred: Jason "Picklemic" Loomis picklemic 2@ gmail

Set 1
01. Intro
02. Calypso Minor
03. Let The Good Times Roll (Sam Cooke song)
04. Rockin' In Rhythn
05. Jealous Guy
06. Rain Check
07. You've Been A Good Ole Wagon

Set 2
01. Rubbed Out
02. Angelica
03. Soweto Is Where It's At
04. Good Times Roll (The Cars song)
05. Charlie Solo
06. One Mint Julep
07. California Soul
08. I'm An Old Cowhand
09. Royals
E)
10. The Wizard Walks The Pavement

    length     expanded size    cdr  WAVE problems  fmt   ratio  filename
     2:41.144      46409648 B   cxx   --   ---xx   flac  0.5586  ch2022-05-18s1t01.flac
     7:22.689     127494440 B   cxx   --   ---xx   flac  0.6651  ch2022-05-18s1t02.flac
     9:13.310     159353366 B   cxx   --   ---xx   flac  0.6394  ch2022-05-18s1t03.flac
     4:46.026      82375622 B   cxx   --   ---xx   flac  0.7545  ch2022-05-18s1t04.flac
     7:40.413     132598910 B   cxx   --   ---xx   flac  0.5934  ch2022-05-18s1t05.flac
     4:32.988      78620612 B   cxx   --   ---xx   flac  0.7123  ch2022-05-18s1t06.flac
    11:17.173     195025982 B   cxx   --   ---xx   flac  0.6909  ch2022-05-18s1t07.flac
     7:12.041     124427990 B   cxx   --   ---xx   flac  0.6758  ch2022-05-18s2t01.flac
     5:06.567      88291352 B   cxx   --   ---xx   flac  0.6929  ch2022-05-18s2t02.flac
     6:31.551     112766876 B   cxx   --   ---xx   flac  0.5871  ch2022-05-18s2t03.flac
     5:22.342      92834522 B   cxx   --   ---xx   flac  0.7050  ch2022-05-18s2t04.flac
     4:42.190      81270722 B   cxx   --   ---xx   flac  0.5453  ch2022-05-18s2t05.flac
     5:45.870      99610742 B   cxx   --   ---xx   flac  0.7416  ch2022-05-18s2t06.flac
     6:54.689     119430374 B   cxx   --   ---xx   flac  0.5956  ch2022-05-18s2t07.flac
     7:20.199     126777302 B   cxx   --   ---xx   flac  0.6855  ch2022-05-18s2t08.flac
    14:48.703     255946580 B   cxx   --   ---xx   flac  0.6281  ch2022-05-18s2t09.flac
     5:19.767      92092958 B   cxx   --   ---xx   flac  0.6035  ch2022-05-18s2t10.flac
   116:37.664    2015327998 B                            0.6518  (17 files)
ffp
ch2022-05-18s1t01.flac:3c6a4c5fefb3ac56b1ac3fd11dbd8743
ch2022-05-18s1t02.flac:e4c7dcc55271467e65edf13e07323d1a
ch2022-05-18s1t03.flac:e583cf752a73a106b2d30db63e37c241
ch2022-05-18s1t04.flac:6d147abe2cf3bb9a3579ba1a337e3f80
ch2022-05-18s1t05.flac:89d2287e8df1da41617854f489c6a4d7
ch2022-05-18s1t06.flac:f823c12885693741abd082b3d84af9a0
ch2022-05-18s1t07.flac:6c51c97898c32179f330f5f650760e26
ch2022-05-18s2t01.flac:a9bf0ae3eacbc5b78027e70e41a0b9dc
ch2022-05-18s2t02.flac:64111bbec708cff5cf0d025f57b8d8e7
ch2022-05-18s2t03.flac:78173eb2845d1758819b32e722f354d7
ch2022-05-18s2t04.flac:779b00c71dca9d4fee1b8af0a6fb1320
ch2022-05-18s2t05.flac:95c397ed4334c8c561e244ed7afd71be
ch2022-05-18s2t06.flac:6c908b041afa95ff4f575f48bcf2da51
ch2022-05-18s2t07.flac:1ff1377cdf4098625318fcd8189aa21d
ch2022-05-18s2t08.flac:81a5811df57ce9ebf4c63cec2aabed2b
ch2022-05-18s2t09.flac:3ba59cb91cee1936a5dccf8fa3baf5d8
ch2022-05-18s2t10.flac:83e5cc910f6048a3d9c92704a4fcd97e

Comments
Other Sources (comments)
Source: (on stage) Schoeps... (0) Source One: (on stage)... (0)
Date User Comment
etreedb.org
For administrative requests email contact@etreedb.org
This website written by Tom H Anderson and maintained by the etreedb.org community.

Cached: Thu, 20 Jun 2024 21:43:23 EDT